<?xml version="1.0" standalone="no"?>
<!DOCTYPE svg PUBLIC "-//W3C//DTD SVG 1.1//EN" "http://www.w3.org/Graphics/SVG/1.1/DTD/svg11.dtd" >
<svg xmlns="http://www.w3.org/2000/svg">
<metadata></metadata>
<defs>
<font id="bicycletteregular" horiz-adv-x="1064" >
<font-face units-per-em="2048" ascent="1475" descent="-573" />
<missing-glyph horiz-adv-x="450" />
<glyph horiz-adv-x="0" />
<glyph unicode="&#xd;" horiz-adv-x="681" />
<glyph unicode=" "  horiz-adv-x="450" />
<glyph unicode="&#x09;" horiz-adv-x="450" />
<glyph unicode="&#xa0;" horiz-adv-x="450" />
<glyph unicode="!" horiz-adv-x="446" d="M186 1229l74 -2q53 0 53 -62v-137q0 -85 -12 -244q-9 -122 -25 -276l-12 -119h-82q-49 447 -49 641v137q0 25 12 43q13 19 41 19zM113 88q0 46 30 80q29 33 78 33t78 -33q31 -36 31 -80t-31 -80q-31 -31 -78 -31t-78 31q-30 35 -30 80z" />
<glyph unicode="&#x22;" horiz-adv-x="663" d="M174 1249h12q82 0 82 -86v-20q0 -43 -12 -129q-15 -107 -25 -150l-14 -63h-74q-53 245 -53 340v20q0 38 23 64q21 24 61 24zM469 1249h12q82 0 82 -86v-20q0 -43 -12 -129q-15 -107 -25 -150l-14 -63h-74q-53 245 -53 340v20q0 38 23 64q21 24 61 24z" />
<glyph unicode="#" horiz-adv-x="1327" d="M100 717v110h328l76 355q3 10 18 22q16 13 25 13h110q10 0 19 -9q10 -10 10 -20q0 -8 -6 -35l-70 -326h213l76 355q3 9 19 22t24 13h111q9 0 18 -9q10 -10 10 -20q0 -8 -6 -35l-69 -326h225v-122h-252l-45 -216h297v-122h-324l-73 -344q-3 -8 -19 -21q-17 -10 -24 -10 h-111q-6 0 -18 8q-9 9 -9 23q0 7 11 55l61 295h-213l-74 -344q-3 -9 -18 -21q-12 -10 -25 -10h-110q-11 0 -19 8t-8 23q0 11 10 55l62 295h-230v123h256l45 215h-301zM582 705l-45 -216h213l45 216h-213z" />
<glyph unicode="$" horiz-adv-x="1304" d="M471 -162l-2 164q-179 35 -272 135q-95 103 -95 236v20q0 23 25 23h127q29 0 29 -29q0 -174 188 -227v401q-369 30 -369 320q0 122 93 223q91 98 276 133v160h115v-146h30h35q44 0 56 -2v146h114v-158q181 -30 264 -129q84 -101 84 -242q0 -20 -30 -20h-121q-28 0 -31 35 q-15 143 -166 190v-383q379 -38 379 -334q0 -130 -92 -233t-287 -127v-156h-114v144h-41q-10 0 -80 4v-148h-115zM1020 356l-2 -2q0 66 -43 115q-45 51 -154 66v-385q199 34 199 206zM279 879q0 -141 188 -162v354q-188 -53 -188 -192zM664 135h41v406l-123 10v-414 q16 -2 82 -2zM649 1094v2q-53 0 -67 -2v-385l123 -9v394h-27h-29z" />
<glyph unicode="%" horiz-adv-x="1523" d="M82 952h-2q0 133 82 215t209 82t209 -82q84 -84 84 -215q0 -133 -82 -215t-209 -82t-209 82t-82 215zM219 952q0 -76 43 -125t111 -49q67 0 110 49t43 125t-43 125t-110 49q-68 0 -111 -49t-43 -125zM856 274l-4 -2q0 131 84 215t209 84q127 0 209 -82q84 -84 84 -215 q0 -133 -82 -215q-79 -79 -209 -79t-209 79q-82 82 -82 215zM991 272q0 -76 43 -125t111 -49q67 0 110 49t43 125t-43 125t-110 49q-68 0 -111 -49t-43 -125zM219 0l977 1300l96 -73l-977 -1301z" />
<glyph unicode="&#x26;" horiz-adv-x="1406" d="M1071 655l127 -2q25 0 25 -22v-21q0 -221 -107 -383l232 -196q10 -10 10 -19q0 -12 -19 -12h-165q-29 0 -46 14l-114 99q-161 -133 -412 -133q-236 0 -354 104q-123 108 -123 240q0 112 61 188t197 135q-168 149 -168 283q0 148 104 233q106 86 281 86q173 0 274 -94 q103 -95 103 -223q0 -205 -256 -309l-45 -19l307 -260q59 115 59 283q0 28 29 28zM602 133q174 0 283 86l-371 313l-47 -20q-166 -73 -166 -190q0 -78 80 -134q79 -55 221 -55zM397 928l-4 -2q0 -52 35 -99q34 -47 111 -114l79 35q177 78 177 178q0 68 -54 116t-141 48 q-92 0 -147 -43q-56 -44 -56 -119z" />
<glyph unicode="'" horiz-adv-x="364" d="M174 1249h12q82 0 82 -86v-20q0 -43 -12 -129q-15 -107 -25 -150l-14 -63h-74q-53 245 -53 340v20q0 38 23 64q21 24 61 24z" />
<glyph unicode="(" horiz-adv-x="573" d="M279 547v-2q0 -168 12 -285q12 -116 47 -197q35 -80 63 -124q31 -48 86 -109q45 -48 45 -61q0 -16 -18 -31q-20 -17 -33 -17q-27 0 -61 27q-71 57 -125 121q-43 51 -98 149q-50 93 -74 224q-25 138 -25 305q0 226 47 391t111 250q65 87 166 168q33 26 61 26q16 0 35 -16 t19 -31q0 -10 -45 -61q-57 -67 -86 -111t-64 -129q-34 -81 -49 -203q-14 -112 -14 -284z" />
<glyph unicode=")" horiz-adv-x="573" d="M295 547v-2q0 172 -14 284q-15 119 -50 203q-37 89 -63 129q-29 44 -86 111q-45 51 -45 61q0 16 18 31q19 16 35 16q29 0 62 -26q98 -79 165 -168q64 -85 111 -250t47 -391q0 -171 -24 -303q-24 -131 -74 -224q-51 -92 -98 -147q-54 -64 -125 -121q-33 -26 -62 -26 q-14 0 -33 16q-18 15 -18 31q0 13 45 61q55 61 86 109q30 46 64 125q35 81 47 196q12 117 12 285z" />
<glyph unicode="*" horiz-adv-x="999" d="M594 1081l-16 -221l10 -6l205 86l67 23q89 29 113 -35l4 -10q26 -63 -72 -95l-67 -22l-215 -49l-5 -11l146 -168l41 -59q53 -76 0 -117l-10 -8q-53 -44 -111 37l-43 57l-115 191h-8l-115 -191l-43 -57q-58 -80 -110 -37l-10 8q-53 41 0 117l41 59l145 168l-4 11l-215 49 l-68 22q-97 32 -71 95l4 10q24 64 112 35l68 -23l205 -86l10 6l-21 221v72q0 96 68 96h12q68 0 68 -96v-72z" />
<glyph unicode="+" horiz-adv-x="1024" d="M922 512h-340v-328h-140v328h-340v139h340v328h140v-328h340v-139z" />
<glyph unicode="," horiz-adv-x="446" d="M115 90l4 -4q0 44 31 80q29 33 77 33q57 0 95 -41q36 -39 36 -121q0 -227 -184 -285q-21 -8 -41 -8q-9 0 -16 10l-21 53q-3 6 0 15t6 12q65 24 93 55t28 86v5q-48 0 -78 30q-30 34 -30 80z" />
<glyph unicode="-" horiz-adv-x="696" d="M604 410h-512v139h512v-139z" />
<glyph unicode="." horiz-adv-x="446" d="M113 90q0 46 30 80q29 33 78 33t78 -33q31 -36 31 -80t-31 -80q-30 -30 -78 -30t-78 30q-30 34 -30 80z" />
<glyph unicode="/" horiz-adv-x="882" d="M41 -203l647 1452h154l-647 -1452h-154z" />
<glyph unicode="0" horiz-adv-x="1269" d="M102 614q0 284 142 461q140 174 391 174t391 -174q141 -175 141 -461q0 -284 -141 -460q-138 -172 -391 -172t-391 172q-142 177 -142 460zM283 614q0 -218 92 -348q91 -129 258 -129t258 129q92 130 92 348q0 219 -92 349q-91 129 -258 129t-258 -129q-92 -130 -92 -349 z" />
<glyph unicode="1" horiz-adv-x="806" d="M633 1249l-6 -1218q0 -8 -11 -19q-10 -10 -18 -10h-119q-8 0 -18 10t-10 19v907l-5 2l-272 -225q-6 -6 -20 -6q-15 0 -21 6l-63 76q-7 7 -4 20q3 16 8 18l506 420h53z" />
<glyph unicode="2" horiz-adv-x="1243" d="M102 0l-2 129l590 385q228 149 228 330q0 114 -82 184q-84 72 -228 72q-305 0 -305 -297q0 -35 -31 -35h-120q-31 0 -31 20q0 213 119 338q121 127 368 127q236 0 363 -118q129 -120 129 -295q0 -130 -80 -242q-78 -109 -258 -227l-234 -152l-120 -55v-8h682q7 0 18 -11 q10 -10 10 -18v-98q0 -11 -8 -19q-10 -10 -18 -10h-990z" />
<glyph unicode="3" horiz-adv-x="1222" d="M543 555v-6q-9 0 -19 10q-8 8 -8 19v98q0 8 10 18q11 11 19 11h98q248 0 248 178q0 94 -70 149t-215 55q-271 0 -289 -215q-3 -34 -30 -34h-121q-31 0 -31 20q0 168 121 277q120 108 350 108q237 0 350 -104q115 -106 115 -258q0 -157 -143 -236v-6q98 -30 151 -104 q54 -76 54 -166q0 -169 -132 -283q-129 -111 -387 -111q-247 0 -378 113q-134 116 -134 293q0 20 31 20h121q28 0 31 -34q9 -110 92 -172t237 -62q157 0 246 68q90 69 90 174q0 180 -233 180h-174z" />
<glyph unicode="4" horiz-adv-x="1208" d="M1098 274h-144v-243q0 -9 -10 -19t-18 -10h-119q-9 0 -19 10t-10 19v243h-717v119l732 836h165v-799h140q8 0 18 -10t10 -19v-98q0 -8 -10 -18q-11 -11 -18 -11zM360 430h414v434l10 144l-8 2q-74 -107 -88 -121l-354 -404l-76 -59l2 -4q60 8 100 8z" />
<glyph unicode="5" horiz-adv-x="1204" d="M969 1073h-627l-43 -338l4 -2q142 86 332 86q214 0 338 -106q127 -109 127 -291q0 -196 -139 -320q-135 -120 -363 -120q-174 0 -315 79q-149 84 -179 230q-4 28 -4 33q0 13 11 24q10 10 24 10h111q28 0 37 -30q27 -92 116 -142q88 -49 201 -49q145 0 234 80 q88 79 88 203q0 110 -74 178t-215 68q-179 0 -334 -107q-21 -15 -49 0l-129 76q-10 7 -10 22l73 572h783q8 0 18 -10t10 -19v-98q0 -11 -8 -19q-10 -10 -18 -10z" />
<glyph unicode="6" horiz-adv-x="1234" d="M633 -18v-5q-275 0 -402 164q-129 167 -129 449q0 302 142 479q141 176 401 176q203 0 322 -96q116 -94 125 -246q0 -20 -31 -20h-121q-14 0 -20 6q-8 8 -11 29q-15 76 -86 126t-178 50q-347 0 -362 -461h6q45 63 141 104t213 41q239 0 363 -106q127 -109 127 -277 q0 -181 -136 -299q-132 -114 -364 -114zM643 621l4 -5q-152 0 -241 -65t-89 -160q0 -108 84 -186q82 -76 234 -76q162 0 239 74q78 75 78 188q0 99 -80 164q-81 66 -229 66z" />
<glyph unicode="7" horiz-adv-x="1028" d="M733 1073h-663q-9 0 -19 10t-10 19v98q0 9 10 19t19 10h938v-6l-639 -1200q-13 -23 -47 -23h-146q-12 0 -12 12q0 10 6 19l563 1038v4z" />
<glyph unicode="8" horiz-adv-x="1228" d="M614 1249h4q224 0 349 -96q123 -94 123 -246q0 -82 -46 -149q-48 -70 -122 -109v-4q206 -92 206 -295q0 -175 -139 -270q-137 -94 -373 -94q-235 0 -372 94q-140 96 -140 270q0 101 56 178q55 76 151 117v4q-75 40 -123 109q-45 65 -45 149q0 152 125 246q128 96 346 96z M950 348l-2 -2q0 96 -86 158q-85 61 -246 61q-160 0 -245 -61q-86 -62 -86 -156q0 -96 86 -155q85 -58 247 -58q158 0 246 60q86 59 86 153zM907 903v2q0 81 -69 135q-71 56 -222 56q-153 0 -221 -56q-67 -55 -67 -135q0 -82 67 -137t221 -55q152 0 222 55q69 54 69 135z " />
<glyph unicode="9" horiz-adv-x="1234" d="M602 1249l-6 -2q274 0 403 -166q129 -167 129 -448q0 -304 -135 -479q-134 -174 -393 -174q-209 0 -328 96q-122 98 -131 248q0 20 31 20h121q14 0 20 -6q8 -8 11 -29q15 -74 90 -125q73 -49 182 -49q335 0 350 461h-6q-45 -63 -141 -104t-211 -41q-239 0 -363 106 q-125 107 -125 277q0 181 136 299q134 116 366 116zM586 602l-6 -2q150 0 241 66q88 64 88 159q0 109 -84 187q-81 75 -233 75q-164 0 -240 -73q-78 -75 -78 -187q0 -96 80 -161q79 -64 232 -64z" />
<glyph unicode=":" horiz-adv-x="446" d="M113 90q0 46 30 80q29 33 78 33t78 -33q31 -36 31 -80t-31 -80q-30 -30 -78 -30t-78 30q-30 34 -30 80zM113 688q0 46 30 80q29 33 78 33t78 -33q31 -36 31 -80t-31 -80q-29 -33 -78 -33t-78 33q-30 34 -30 80z" />
<glyph unicode=";" horiz-adv-x="446" d="M115 90l4 -4q0 44 31 80q29 33 77 33q57 0 95 -41q36 -39 36 -121q0 -227 -184 -285q-21 -8 -41 -8q-9 0 -16 10l-21 53q-3 6 0 15t6 12q65 24 93 55t28 86v5q-48 0 -78 30q-30 34 -30 80zM117 684q0 47 33 80t79 33q47 0 80 -33t33 -80t-33 -80t-80 -33q-46 0 -79 33 t-33 80z" />
<glyph unicode="&#x3c;" horiz-adv-x="1024" d="M883 176v-115h-52l-690 435v49l690 438h52v-113l-547 -346v-6z" />
<glyph unicode="=" horiz-adv-x="1024" d="M922 664h-820v139h820v-139zM922 360h-820v140h820v-140z" />
<glyph unicode="&#x3e;" horiz-adv-x="1024" d="M141 61v115l547 342v6l-547 346v113h52l690 -438v-49l-690 -435h-52z" />
<glyph unicode="?" horiz-adv-x="839" d="M207 928h-113q-33 0 -33 30q0 130 93 211q92 80 247 80q161 0 261 -86q98 -85 98 -229q0 -183 -205 -301l-29 -17q-57 -34 -57 -122v-101q0 -10 -12 -22q-13 -13 -21 -13h-110q-8 0 -21 13q-12 12 -12 22v101q0 96 33 149q35 57 129 109l32 18q99 56 99 166q0 75 -45 117 q-46 43 -131 43q-73 0 -121 -39q-49 -40 -49 -99q0 -30 -33 -30zM266 90q0 44 31 80q29 33 78 33t78 -33q30 -34 30 -80q0 -45 -30 -80q-30 -30 -78 -30t-78 30q-31 36 -31 80z" />
<glyph unicode="@" horiz-adv-x="1763" d="M1391 -25l39 -114q-249 -111 -547 -111q-327 0 -553 203q-224 199 -224 543q0 342 224 544q226 203 555 203q330 0 553 -186q225 -188 225 -469q0 -196 -111 -328q-110 -131 -297 -131q-182 0 -237 143h-6q-98 -122 -238 -122q-113 0 -190 77q-76 76 -76 201 q0 176 110 301q112 127 281 127q131 0 193 -80h4l24 37q18 27 41 27h60q24 0 24 -23q0 -10 -6 -31l-92 -370q-18 -75 18 -117q37 -43 105 -43q121 0 194 98q74 100 74 238q0 231 -190 381q-192 151 -469 151q-281 0 -467 -168q-187 -169 -187 -454q0 -284 189 -455 q189 -168 467 -168q269 0 510 96zM791 274h4q121 0 223 170l41 158q-12 58 -55 92q-44 35 -103 35q-104 0 -172 -92q-67 -91 -67 -211q0 -72 36 -111q38 -41 93 -41z" />
<glyph unicode="A" horiz-adv-x="1339" d="M1124 27l-110 227h-682l-113 -227q-10 -20 -16 -23q-8 -4 -27 -4h-133q-18 0 -18 14q0 2 10 25l602 1190h74l602 -1190q10 -23 10 -25q0 -14 -18 -14h-134h-20q-6 0 -12 6t-15 21zM575 737l-163 -327h526l-164 327q-12 22 -39 84q-24 55 -39 99l-16 43h-12 q-47 -133 -93 -226z" />
<glyph unicode="B" horiz-adv-x="1306" d="M786 0h-585q-13 0 -19 6q-8 8 -8 19v1179q0 11 8 19t19 8h575q198 0 307 -92t109 -240q0 -155 -113 -240v-4q164 -95 164 -295q0 -177 -119 -268q-121 -92 -338 -92zM356 154h426q283 0 283 206q0 205 -283 205h-426v-411zM772 1071h-416v-350h457q114 0 158 47 q43 46 43 129q0 174 -242 174z" />
<glyph unicode="C" horiz-adv-x="1431" d="M1298 758l-124 -6q-17 0 -23 6q-5 5 -8 28q-9 129 -115 215t-285 86q-202 0 -331 -129t-129 -350q0 -219 129 -348t331 -129q178 0 285 78q105 76 117 203q3 23 8 28q6 6 27 6h114q33 0 33 -16q0 -188 -160 -321q-155 -129 -426 -129q-281 0 -460 170q-181 172 -181 462 q0 289 183 463q181 172 460 172q276 0 431 -143t155 -326q0 -20 -31 -20z" />
<glyph unicode="D" horiz-adv-x="1472" d="M711 0h-508q-13 0 -19 6q-8 8 -8 19v1179q0 11 8 19t19 8h506q287 0 473 -168q188 -170 188 -449q0 -283 -174 -448q-175 -166 -485 -166zM709 1071l-349 -2v-917h355q237 0 356 122q121 124 121 338q0 213 -135 336t-348 123z" />
<glyph unicode="E" horiz-adv-x="1245" d="M1053 557l-697 -4v-401h779q7 0 18 -11q10 -10 10 -18v-98q0 -9 -10 -19q-8 -8 -18 -8h-934q-10 0 -19 6q-8 8 -8 19v1179q0 11 8 19t19 8h913q9 0 19 -10t10 -19v-98q0 -9 -10 -19t-19 -10h-758v-360h697q7 0 18 -11q10 -10 10 -18v-98q0 -9 -10 -19t-18 -10z" />
<glyph unicode="F" horiz-adv-x="1183" d="M332 0h-129q-13 0 -19 6q-8 8 -8 19v1179q0 11 8 19t19 8h893q8 0 18 -10t10 -19v-98q0 -9 -10 -19t-18 -10h-738v-401h656q8 0 18 -10t10 -19v-98q0 -9 -10 -19t-18 -10h-656v-491q0 -11 -8 -19t-18 -8z" />
<glyph unicode="G" horiz-adv-x="1472" d="M1370 606v-71q0 -243 -160 -400q-156 -153 -462 -153q-282 0 -461 170q-181 172 -181 462q0 289 183 463q181 172 461 172q281 0 428 -141t153 -313q0 -19 -28 -19h-129q-22 0 -25 19q-15 122 -113 209q-98 88 -291 88q-202 0 -331 -129t-129 -351q0 -219 129 -348 t331 -129q207 0 320 94q115 95 115 222h-525q-8 0 -18 10t-10 18v99q0 8 10 18t18 10h715z" />
<glyph unicode="H" horiz-adv-x="1560" d="M1384 1204v-1179q0 -11 -8 -19q-6 -6 -18 -6h-131q-13 0 -19 6q-8 8 -8 19v475h-848v-475q0 -11 -8 -19q-6 -6 -18 -6h-131q-13 0 -19 6q-8 8 -8 19v1179q0 11 8 19t19 8h131q10 0 18 -8t8 -19v-549h848v549q0 11 8 19t19 8h131q10 0 18 -8t8 -19z" />
<glyph unicode="I" horiz-adv-x="532" d="M356 1204v-1179q0 -11 -8 -19q-6 -6 -18 -6h-131q-13 0 -19 6q-8 8 -8 19v1179q0 11 8 19t19 8h131q10 0 18 -8t8 -19z" />
<glyph unicode="J" horiz-adv-x="1107" d="M201 365l8 -39q0 -81 70 -136t190 -55q156 0 233 80q78 81 78 221v766q0 10 6 19q5 8 17 8h131q11 0 16 -8q6 -9 6 -19v-766q0 -219 -125 -338q-124 -118 -368 -118q-213 0 -326 96q-117 99 -117 235v54q0 7 11 18q10 10 18 10h123q8 0 18 -10q11 -11 11 -18z" />
<glyph unicode="K" horiz-adv-x="1357" d="M356 1204l-4 -618h4q35 41 62 65l643 559q22 19 49 19h180q13 0 13 -10q0 -7 -15 -19l-600 -522l637 -645q10 -10 10 -19q0 -14 -18 -14h-174q-27 0 -43 16l-541 547l-203 -178v-360q0 -11 -8 -19q-6 -6 -18 -6h-131q-13 0 -19 6q-8 8 -8 19v1179q0 11 8 19t19 8h131 q10 0 18 -8t8 -19z" />
<glyph unicode="L" horiz-adv-x="1101" d="M356 1204l-2 -1050h676q8 0 19 -11q10 -10 10 -18v-98q0 -9 -10 -19q-8 -8 -19 -8h-831q-13 0 -19 6q-8 8 -8 19v1179q0 11 8 19t19 8h131q10 0 18 -8t8 -19z" />
<glyph unicode="M" horiz-adv-x="1740" d="M1456 1229h92q11 0 19 -8t8 -19v-1179q0 -11 -8 -19q-9 -6 -19 -6h-131q-9 0 -18 6q-8 8 -8 19v886h-7q-28 -72 -73 -135l-437 -622l-436 622q-20 26 -39 62q-14 26 -26 55l-8 18h-7v-886q0 -11 -8 -19q-9 -6 -18 -6h-131q-10 0 -19 6q-8 8 -8 19v1179q0 11 8 19t19 8h84 q24 0 39 -21l544 -774h4l545 774q15 21 39 21z" />
<glyph unicode="N" horiz-adv-x="1560" d="M1264 0l-824 842q-15 15 -39 47q-13 17 -26 39l-10 12h-7v-917q0 -11 -8 -19q-9 -6 -18 -6h-131q-10 0 -19 6q-8 8 -8 19v1179q0 11 8 19t19 8h98l805 -823q22 -22 47 -54q23 -29 31 -43l12 -16h8v913q0 11 8 19t19 8h131q10 0 18 -8t8 -19v-1179q0 -11 -8 -19t-18 -8 h-96z" />
<glyph unicode="O" horiz-adv-x="1531" d="M766 1249v4q285 0 475 -172q191 -173 191 -463q0 -289 -191 -462q-188 -170 -475 -170q-285 0 -473 170q-191 173 -191 460q0 288 191 461q190 172 473 172zM766 1098v4q-206 0 -344 -129q-139 -130 -139 -350q0 -218 139 -351q137 -131 344 -131q206 0 344 129 q139 130 139 348q0 223 -137 351q-138 129 -346 129z" />
<glyph unicode="P" horiz-adv-x="1265" d="M332 0l-129 -2q-10 0 -19 6q-8 8 -8 19v1179q0 11 8 19t19 8h504q223 0 360 -119q139 -121 139 -326q0 -201 -141 -321q-140 -119 -358 -119h-349v-317q0 -11 -8 -19t-18 -8zM702 1069l-346 2v-575h344q145 0 234 77q90 78 90 209q0 133 -88 209q-90 78 -234 78z" />
<glyph unicode="Q" horiz-adv-x="1531" d="M766 1249l-4 6q285 0 475 -172t190 -462q0 -285 -188 -461l158 -199q9 -27 -6 -45l-93 -72q-22 -15 -43 6l-163 205q-144 -69 -326 -69q-285 0 -473 170q-191 173 -191 460q0 288 191 461q190 172 473 172zM762 1100v4q-206 0 -344 -129q-139 -130 -139 -350 q0 -218 139 -351q137 -131 344 -131q206 0 344 129q139 130 139 349q0 222 -137 350q-138 129 -346 129z" />
<glyph unicode="R" horiz-adv-x="1327" d="M176 25v1177q0 11 8 19t19 8h524q226 0 363 -107q139 -109 139 -297q0 -144 -86 -239q-84 -93 -230 -131v-4q45 -42 78 -89l234 -323q14 -17 14 -27q0 -12 -16 -12h-168q-21 0 -29 14l-303 420h-363v-409q0 -11 -8 -19q-6 -6 -18 -6h-131q-13 0 -19 6q-8 8 -8 19z M721 1071l-365 -4v-494h365q142 0 233 66q90 66 90 182q0 121 -88 185q-93 68 -235 65z" />
<glyph unicode="S" horiz-adv-x="1294" d="M127 414h121q28 0 28 -29q0 -250 386 -250q178 0 262 66t84 172q0 149 -209 164l-342 24q-359 24 -359 301q0 156 135 273q134 116 388 116q269 0 393 -106q125 -107 125 -279q0 -20 -31 -20h-121q-28 0 -31 35q-9 92 -88 153q-80 62 -245 62q-154 0 -248 -66 q-92 -65 -92 -166q0 -132 194 -147l336 -25q199 -15 289 -102t90 -217q0 -149 -131 -271q-129 -120 -393 -120q-275 0 -418 108q-148 112 -148 281v20q0 23 25 23z" />
<glyph unicode="T" horiz-adv-x="1290" d="M70 1073h-4q-9 0 -19 10t-10 19v98q0 9 10 19t19 10h1151q8 0 18 -10t10 -19v-98q0 -9 -10 -19t-18 -10h-486v-1048q0 -10 -6 -19q-4 -6 -16 -6h-131q-13 0 -17 6q-6 9 -6 19v1048h-485z" />
<glyph unicode="U" horiz-adv-x="1523" d="M1188 573l-8 629q0 11 8 19t18 8h131q11 0 19 -8t8 -19v-631q0 -293 -162 -442t-444 -149q-281 0 -443 149q-161 148 -161 442v631q0 11 8 19t18 8h131q11 0 19 -8t8 -19v-631q0 -216 111 -327t313 -111q204 0 315 111q114 114 111 329z" />
<glyph unicode="V" horiz-adv-x="1339" d="M223 1202l352 -710l84 -195h13q49 123 84 195l356 710q10 20 16 23q8 4 27 4h143q17 0 17 -12q0 -4 -10 -27l-603 -1190h-73l-602 1190q-11 26 -11 27q0 12 17 12h143h21q6 0 12 -6q3 -3 14 -21z" />
<glyph unicode="W" horiz-adv-x="2097" d="M2068 1192l-585 -1194h-58l-364 838l-14 45h-5q-7 -30 -14 -45l-364 -838h-58l-581 1190q-9 15 -9 24q0 13 17 13h143h17q6 0 10 -2q7 -4 10 -9q4 -8 6 -14l346 -711q17 -31 31 -71l27 -74l8 -31h8q26 90 55 160l326 754h57l326 -754l55 -160h8q36 119 64 179l346 710 q11 21 14 23q8 4 27 4h143q17 0 17 -12q0 -10 -9 -25z" />
<glyph unicode="X" horiz-adv-x="1310" d="M1251 1200l-481 -577l500 -594q8 -8 8 -19q0 -10 -12 -10h-168q-29 0 -49 23l-410 487h-4q-63 -102 -74 -115l-305 -372q-20 -23 -49 -23h-164q-12 0 -12 10q0 11 8 19l496 608l-474 563q-8 8 -8 19q0 12 13 12h170q27 0 49 -25l383 -456h4q55 84 102 143l262 313 q22 25 49 25h162q13 0 13 -12q0 -10 -9 -19z" />
<glyph unicode="Y" horiz-adv-x="1282" d="M551 514l-526 686q-9 9 -9 17q0 12 13 12h155q30 0 49 -25l310 -403l88 -125h12q62 90 88 125l309 403q19 25 50 25h155q12 0 12 -12q0 -9 -8 -17l-522 -686v-489q0 -10 -6 -19q-4 -6 -16 -6h-132q-12 0 -16 6q-6 9 -6 19v489z" />
<glyph unicode="Z" horiz-adv-x="1374" d="M61 0l-4 6l815 971q17 22 48 49q32 28 36 31l13 10v6h-840q-8 0 -18 10q-11 11 -11 19v98q0 8 11 19q10 10 18 10h1182v-4l-840 -998q-5 -5 -16 -15.5t-17 -16.5q-18 -18 -30 -27l-11 -8v-4h865q7 0 18 -11q10 -10 10 -18v-98q0 -11 -8 -19q-10 -10 -18 -10h-1203z" />
<glyph unicode="[" horiz-adv-x="561" d="M176 -223v1616h344v-123h-205v-1370h205v-123h-344z" />
<glyph unicode="\" horiz-adv-x="880" d="M193 1249l647 -1452h-152l-647 1452h152z" />
<glyph unicode="]" horiz-adv-x="561" d="M385 1393v-1616h-344v123h205v1370h-205v123h344z" />
<glyph unicode="^" horiz-adv-x="1005" d="M240 614h-164l368 615h117l369 -615h-166l-256 433h-10z" />
<glyph unicode="_" horiz-adv-x="1024" d="M1024 -141v-82h-1024v82h1024z" />
<glyph unicode="`" horiz-adv-x="593" d="M139 1348l29 26q19 19 51 19q37 0 70 -45l207 -283q12 -15 12 -25q0 -14 -16 -14h-66q-18 0 -31 10l-243 203q-35 27 -35 61q0 26 22 48z" />
<glyph unicode="a" horiz-adv-x="1054" d="M762 96l-6 -6l-31 -24q-113 -91 -305 -91q-154 0 -236 70q-80 71 -80 184q0 106 84 172t265 66h309v33q0 101 -53 151q-52 49 -197 49q-107 0 -154 -30q-45 -29 -45 -99v-6q0 -18 -34 -18h-111q-9 0 -21 12t-12 23v6q0 124 92 198t287 74q226 0 326 -100 q102 -102 102 -277v-448q0 -11 -12 -23t-23 -12h-86q-18 0 -33 35zM420 129v2q95 0 190 31q92 30 152 78v90h-309q-170 0 -170 -103q0 -98 137 -98z" />
<glyph unicode="b" horiz-adv-x="1095" d="M303 1317l-4 -565h10l19 18q90 90 264 90q187 0 295 -123q106 -121 106 -319q0 -212 -123 -326q-119 -110 -297 -110q-153 0 -258 84l-10 8h-4l-22 -41q-17 -33 -37 -33h-84q-11 0 -23 12t-12 23v1282q0 10 12 22q13 13 23 13h110q10 0 23 -13q12 -12 12 -22zM809 420h-2 q0 129 -66 207t-172 78q-95 0 -168 -54q-69 -52 -100 -139v-281q104 -96 258 -96q106 0 178 78t72 207z" />
<glyph unicode="c" horiz-adv-x="1099" d="M993 569l-4 -2q4 -28 4 -32q0 -15 -10 -25t-25 -10h-110q-28 0 -37 30l-8 29q-42 143 -246 143q-132 0 -205 -79t-73 -205q0 -132 81 -207q84 -78 222 -78q168 0 295 133q10 10 24 10q18 0 23 -8l59 -65q10 -10 10 -23q0 -15 -12 -30q-145 -173 -401 -173 q-211 0 -344 115q-136 118 -136 326q0 209 131 325q132 117 332 117q171 0 283 -69t147 -222z" />
<glyph unicode="d" horiz-adv-x="1095" d="M793 96l-5 -2l-18 -18q-96 -96 -258 -96q-169 0 -289 114q-123 117 -123 326q0 195 119 317q120 123 307 123q160 0 240 -69l14 -13h11v539q0 10 12 22q13 13 22 13h111q9 0 22 -13t13 -22v-1282q0 -10 -13 -23q-12 -12 -20 -12h-84q-21 0 -35 33zM283 418v-2 q0 -130 71 -207q72 -78 178 -78q139 0 261 119v291q-34 75 -101 118t-149 43q-113 0 -187 -77q-73 -76 -73 -207z" />
<glyph unicode="e" horiz-adv-x="1105" d="M932 240l39 -43q14 -14 14 -33t-24 -43q-144 -141 -381 -141q-208 0 -342 114q-140 119 -140 324q0 188 127 315q125 125 338 125t326 -110q121 -117 112 -277l-6 -104h-710q12 -102 96 -168q82 -64 203 -64q169 0 276 98q21 21 39 21q19 0 33 -14zM563 702 q-110 0 -184 -51q-77 -53 -92 -149h530q-15 200 -254 200z" />
<glyph unicode="f" horiz-adv-x="688" d="M70 840l110 -4v196q0 166 99 252q100 86 245 86q101 0 185 -35q28 -12 28 -28q0 -8 -10 -31l-37 -72q-12 -22 -39 -10q-53 20 -121 20q-71 0 -120 -43q-50 -44 -50 -135v-196h279q7 0 18 -11t11 -18v-98q0 -8 -11 -19q-10 -10 -18 -10h-279v-649q0 -11 -12 -23t-22 -12 h-111q-10 0 -22 12q-13 13 -13 23v649h-110q-9 0 -19 10t-10 19v98q0 8 10 18q11 11 19 11z" />
<glyph unicode="g" horiz-adv-x="985" d="M131 532h-2q0 143 94 234q95 92 260 92q156 0 254 -88h4l4 6q55 82 183 82q35 0 35 -20v-138q0 -8 -9 -14t-14 -6h-12h-23q-51 0 -86 -35q21 -61 21 -117q0 -141 -95 -233t-260 -92q-108 0 -182 39q-41 -47 -41 -92q0 -82 117 -82h223q162 0 252 -78q90 -81 90 -197 q0 -133 -104 -227q-107 -96 -316 -96h-8q-182 0 -295 84q-110 82 -110 200q0 111 92 203v8q-101 55 -101 185q0 101 91 186q-62 83 -62 196zM377 -80l-12 -2q-76 -52 -76 -141q0 -65 59 -109q58 -43 154 -43h22q116 0 178 47t62 115q0 53 -39 92q-41 41 -125 41h-223z M289 530q0 -74 51 -122q53 -50 143 -50q91 0 144 50q51 48 51 122q0 75 -51 123q-52 49 -144 49q-91 0 -143 -49q-51 -48 -51 -123z" />
<glyph unicode="h" d="M303 1317l-4 -596h8l8 10q41 53 117 90q75 37 166 37q348 0 348 -328v-497q0 -11 -12 -23q-10 -10 -21 -10h-110q-11 0 -21 10q-12 12 -12 23v497q0 80 -47 127q-48 48 -129 48q-103 0 -182 -54t-109 -139v-477q0 -11 -12 -23t-23 -12h-110q-11 0 -23 12t-12 23v1282 q0 10 12 22q13 13 23 13h110q10 0 23 -13q12 -12 12 -22z" />
<glyph unicode="i" horiz-adv-x="425" d="M303 805v-770q0 -11 -12 -23t-23 -12h-110q-11 0 -23 12t-12 23v770q0 10 12 22q13 13 23 13h110q10 0 23 -13q12 -12 12 -22zM102 1139q0 47 33 80q32 32 80 32t80 -32q33 -33 33 -80t-33 -80t-80 -33t-80 33t-33 80z" />
<glyph unicode="j" horiz-adv-x="448" d="M326 805l-4 -1018q0 -143 -80 -229t-232 -86q-139 0 -227 88q-8 8 -8 18q0 8 6 14l67 80q18 23 39 2q53 -47 115 -47q64 0 104 43q39 42 39 115v1020q0 9 13 22t22 13h111q9 0 22 -13t13 -22zM121 1141q0 44 31 80q28 32 77 32q50 0 78 -32q31 -36 31 -80t-31 -80 q-29 -33 -78 -33q-48 0 -77 33q-31 36 -31 80z" />
<glyph unicode="k" horiz-adv-x="1021" d="M303 1317l2 -907h6l43 53l365 342q35 35 74 35h145q23 0 23 -19q0 -11 -11 -22l-346 -322l377 -438q10 -13 10 -21q0 -18 -30 -18h-119q-55 0 -92 43l-273 315l-174 -163v-160q0 -11 -12 -23t-23 -12h-110q-11 0 -23 12t-12 23v1282q0 10 12 22q13 13 23 13h110 q10 0 23 -13q12 -12 12 -22z" />
<glyph unicode="l" horiz-adv-x="425" d="M303 1317v-1282q0 -11 -12 -23t-23 -12h-110q-11 0 -23 12t-12 23v1282q0 10 12 22q13 13 23 13h110q10 0 23 -13q12 -12 12 -22z" />
<glyph unicode="m" horiz-adv-x="1558" d="M123 35l4 770q0 10 12 22q13 13 23 13h84q19 0 30 -33l29 -78h10l11 12q98 119 252 119q194 0 264 -147h6l24 28q101 119 275 119q139 0 219 -80t80 -227v-518q0 -11 -12 -23t-23 -12h-111q-10 0 -22 12t-12 23v518q0 152 -146 152q-81 0 -149 -56q-70 -58 -99 -137v-477 q0 -11 -12 -23t-20 -12h-111q-8 0 -20 12q-13 13 -13 23v518q0 152 -145 152q-82 0 -150 -56q-69 -57 -98 -137v-477q0 -11 -12 -23t-23 -12h-110q-11 0 -23 12t-12 23z" />
<glyph unicode="n" d="M772 532l-4 -4q0 80 -47 127t-129 47q-105 0 -182 -53q-79 -54 -109 -139v-477q0 -11 -12 -23q-10 -10 -23 -10h-110q-13 0 -23 10q-12 12 -12 23v770q0 10 12 22q13 13 23 13h84q20 0 32 -35l29 -80h8l8 10q41 53 117 90q75 37 166 37q348 0 348 -328v-497 q0 -11 -12 -23t-21 -12h-110q-9 0 -21 12t-12 23v497z" />
<glyph unicode="o" horiz-adv-x="1126" d="M563 860h4q201 0 330 -117t129 -325q0 -210 -131 -326q-130 -115 -332 -115t-332 115q-131 116 -131 326q0 209 131 325q132 117 332 117zM848 420l-4 -2q0 126 -76 205t-203 79t-203 -79q-75 -78 -75 -205q0 -132 75 -207q78 -78 205 -78q126 0 203 80q78 81 78 207z " />
<glyph unicode="p" horiz-adv-x="1095" d="M303 752l8 -2l19 18q90 90 264 90q181 0 289 -123t108 -317q0 -212 -123 -326q-119 -110 -297 -110q-150 0 -239 69l-27 21h-4v-547q0 -11 -12 -23t-23 -12h-110q-11 0 -23 12t-12 23v1280q0 10 12 22q13 13 23 13h84q20 0 36 -31zM811 418q0 130 -68 207t-172 77 q-97 0 -168 -53q-69 -52 -100 -139v-281q104 -96 258 -96q106 0 178 78t72 207z" />
<glyph unicode="q" horiz-adv-x="1095" d="M793 -475l-2 571h-11l-18 -20q-86 -96 -252 -96q-169 0 -289 114q-123 117 -123 326q0 195 119 317q120 123 307 123q153 0 240 -69l18 -15h6l19 29q21 35 43 35h84q9 0 22 -13t13 -22v-1280q0 -10 -13 -23q-12 -12 -20 -12h-111q-8 0 -20 12t-12 23zM281 418v-2 q0 -130 71 -207q72 -78 178 -78q139 0 261 119v291q-34 75 -101 118t-149 43q-113 0 -187 -77q-73 -76 -73 -207z" />
<glyph unicode="r" horiz-adv-x="894" d="M303 723v-2l14 16q109 121 258 121q271 0 271 -295v-20q0 -9 -12 -21t-21 -12h-111q-8 0 -20 12t-12 23v8q0 74 -33 113t-92 39q-78 0 -146 -56q-70 -58 -96 -137v-477q0 -11 -12 -23t-23 -12h-110q-11 0 -23 12t-12 23v770q0 10 12 22q13 13 23 13h84q20 0 32 -35z" />
<glyph unicode="s" horiz-adv-x="1003" d="M135 281l109 -2q32 0 32 -31q0 -115 244 -115q199 0 199 119q0 71 -144 86l-200 20q-152 15 -213 70q-62 56 -62 156q0 108 99 190q101 84 280 84q195 0 287 -74t92 -184q0 -25 -24 -25h-119q-33 0 -39 37q-15 88 -197 88q-106 0 -151 -36q-47 -38 -47 -82q0 -62 106 -74 l197 -21q185 -18 250 -75q67 -58 67 -160q0 -108 -92 -191q-90 -81 -287 -81q-212 0 -315 69q-105 71 -105 201q0 31 33 31z" />
<glyph unicode="t" horiz-adv-x="739" d="M160 684h-113q-8 0 -18 10q-11 11 -11 19v98q0 7 11 18t18 11h111v190q0 11 12 23t23 12h110q11 0 23 -12t12 -23v-190h278q8 0 19 -11q10 -10 10 -18v-98q0 -9 -10 -19t-19 -10h-278v-389q0 -94 35 -129q33 -33 104 -33q56 0 133 47q28 16 43 -14l35 -68q8 -13 8 -24 q0 -19 -26 -33q-98 -59 -203 -59q-307 0 -307 313v389z" />
<glyph unicode="u" d="M762 102l-6 -2l-11 -10q-110 -110 -282 -110q-181 0 -264 96q-86 100 -86 270v457q0 10 12 22q13 13 22 13h111q10 0 23 -13q12 -12 12 -22v-457q0 -102 45 -156q46 -55 135 -55q105 0 182 53q79 54 109 140v477q0 10 12 22q13 13 23 13h110q10 0 23 -13q12 -12 12 -22 v-770q0 -11 -12 -23t-23 -12h-84q-22 0 -37 37z" />
<glyph unicode="v" horiz-adv-x="970" d="M432 0l-391 799q-10 23 -10 26q0 15 18 15h135q30 0 43 -29l226 -457l28 -90h8q8 46 29 90l225 457q13 29 43 29h136q18 0 18 -15q0 -3 -10 -26l-391 -799h-107z" />
<glyph unicode="w" horiz-adv-x="1374" d="M215 811l184 -412l25 -104h8q8 52 25 98l190 447h80l191 -447l26 -98h8q8 66 25 104l182 412q9 21 17 25t24 4h127q16 0 16 -15q0 -6 -4 -18l-354 -807h-70l-190 449l-35 108h-6q-14 -57 -35 -108l-190 -449h-70l-354 807q-4 12 -4 18q0 15 16 15h127q17 0 25 -4 q7 -3 16 -25z" />
<glyph unicode="x" horiz-adv-x="962" d="M707 23l-242 299h-4q-23 -55 -60 -105l-147 -194q-20 -23 -51 -23h-144q-18 0 -18 16q0 10 18 31l306 393l-287 355q-15 15 -15 28q0 17 19 17h143q31 0 51 -23l218 -270h4q21 40 59 92l135 178q20 23 51 23h144q18 0 18 -17q0 -9 -18 -30l-291 -369l307 -377 q19 -22 19 -31q0 -16 -19 -16h-145q-31 0 -51 23z" />
<glyph unicode="y" horiz-adv-x="1003" d="M963 788l-517 -1273q-9 -25 -45 -25h-131q-16 0 -16 16q0 8 10 35l193 473l-414 779q-10 17 -10 30q0 17 18 17h133q34 0 49 -27l261 -489l43 -107h4l241 596q12 27 43 27h131q17 0 17 -17q0 -8 -10 -35z" />
<glyph unicode="z" horiz-adv-x="892" d="M803 0h-768v2l436 596q10 12 37 39q22 22 37 31l12 10v4h-461q-8 0 -18 10q-8 8 -8 19v98q0 8 10 18q11 11 18 11h752v-7l-428 -581q-30 -40 -37 -47q-22 -22 -37 -31l-12 -12v-4h467q7 0 18 -11q10 -10 10 -18v-98q0 -9 -10 -19t-18 -10z" />
<glyph unicode="{" horiz-adv-x="624" d="M141 522h-78v123h70q54 0 80 33q29 37 29 92q0 42 -37 160t-37 209q0 131 80 202q81 72 225 72q51 0 98 -8q21 -3 21 -25v-73q0 -9 -6 -15q-7 -7 -19 -4q-66 4 -90 4q-70 0 -110 -37q-39 -36 -39 -106q0 -47 34 -174q35 -131 35 -197q0 -153 -104 -190v-8 q104 -37 104 -191q0 -76 -32 -196q-33 -123 -33 -175q0 -66 41 -104q40 -37 110 -37q24 0 90 4q12 3 19 -4q6 -6 6 -14v-74q0 -22 -20 -25q-47 -8 -99 -8q-144 0 -225 72q-80 71 -80 201q0 91 37 209t37 159q0 57 -27 92q-26 33 -80 33z" />
<glyph unicode="|" horiz-adv-x="491" d="M176 -203v1555h139v-1555h-139z" />
<glyph unicode="}" horiz-adv-x="624" d="M553 522l-78 -8q-54 0 -80 -33t-26 -92q0 -42 37 -160q36 -115 36 -209q0 -129 -80 -200q-81 -72 -225 -72q-51 0 -98 8q-21 3 -21 25v74q0 9 7 16t18 4q66 -4 90 -4q71 0 111 37q41 38 41 104q0 53 -33 176t-33 197q0 153 105 190v9q-105 38 -105 190q0 66 35 197 t35 176q0 70 -39 106q-40 37 -111 37q-24 0 -90 -4q-11 -3 -18 4q-6 6 -6 17v73q0 22 20 25q47 8 98 8q145 0 226 -72q80 -71 80 -202q0 -91 -37 -209t-37 -160q0 -56 28 -92q26 -33 80 -33h70v-123z" />
<glyph unicode="~" horiz-adv-x="1261" d="M221 387l-151 -2q0 189 77 301q76 111 222 111q81 0 157 -43q81 -46 127 -95q44 -46 111 -94q61 -43 115 -43q63 0 110 62q45 60 45 194h144q0 -191 -76 -301t-221 -110q-78 0 -154 43q-79 45 -127 96q-50 52 -111 96q-61 43 -114 43q-68 0 -111 -61t-43 -197z" />
<glyph unicode="&#xa1;" horiz-adv-x="446" d="M113 688q0 46 30 80q29 33 78 33t78 -33q31 -36 31 -80t-31 -80q-29 -33 -78 -33t-78 33q-30 34 -30 80zM260 -449l-76 3q-53 0 -53 61v137q0 85 12 244q9 121 25 274l12 119h82q49 -447 49 -639v-137q0 -25 -12 -43q-13 -19 -39 -19z" />
<glyph unicode="&#xa2;" horiz-adv-x="1099" d="M342 -166l45 174q-134 47 -209 150q-78 107 -78 260q0 209 131 325q132 117 332 117h29h26l50 180l118 -30l-47 -174q215 -68 256 -265q4 -28 4 -32q0 -15 -10 -25t-24 -10h-111q-28 0 -37 31l-8 28q-21 76 -111 117l-145 -543h33q168 0 295 133q11 11 24 11q17 0 23 -9 l59 -65q10 -10 10 -23q0 -15 -12 -30q-144 -172 -401 -172q-8 0 -74 4l-49 -183zM281 418l-2 -2q0 -182 149 -252l143 538h-12q-132 0 -205 -79t-73 -205z" />
<glyph unicode="&#xa3;" horiz-adv-x="1091" d="M86 463l-2 125h158q-12 28 -54 90q-39 57 -59 108q-23 58 -23 117q0 152 109 252q107 98 301 98q203 0 313 -104q111 -105 111 -272q0 -29 -31 -29h-121q-30 0 -30 35q0 101 -62 157t-178 56q-108 0 -170 -56q-61 -55 -61 -141q0 -62 63 -162q67 -106 80 -149h311v-123 h-288v-8q0 -129 -66 -252v-4q70 -3 193 -35q118 -31 147 -31q75 0 102 27q29 29 29 88q0 31 33 31h102q33 0 33 -31q0 -268 -260 -268q-73 0 -197 34q-124 37 -190 37q-86 0 -201 -65q-12 -4 -18 -4q-15 0 -25 16l-47 78q-6 9 -6 18q0 15 14 23q53 39 109 61q67 128 67 275 v8h-186z" />
<glyph unicode="&#xa4;" horiz-adv-x="1079" d="M293 614q0 -101 74 -172t174 -71t174 71q73 70 73 172t-73 172q-75 72 -174 72t-174 -72q-74 -71 -74 -172zM889 176l-135 141q-92 -69 -215 -69q-121 0 -215 67l-136 -137l-88 88l138 135q-70 94 -70 215t70 215l-138 136l88 88l136 -140q94 70 213 70q114 0 215 -70 l137 140l88 -88l-139 -138q69 -100 69 -215q0 -121 -69 -213l139 -137z" />
<glyph unicode="&#xa5;" horiz-adv-x="1282" d="M190 512l7 125h270v6q-37 37 -61 68l-373 489q-8 8 -8 17q0 12 12 12h156q30 0 49 -25l309 -403l88 -125h12q62 90 88 125l310 403q19 25 49 25h155q13 0 13 -12q0 -8 -9 -17l-372 -489l-60 -70v-6h271v-123h-361v-123h361v-123h-361v-235q0 -10 -12 -19q-13 -10 -21 -10 h-118q-8 0 -21 10q-12 9 -12 19v235h-361v123h361v123h-361z" />
<glyph unicode="&#xa6;" horiz-adv-x="491" d="M315 676h-139v676h139v-676zM176 471h139v-674h-139v674z" />
<glyph unicode="&#xa7;" horiz-adv-x="1024" d="M911 512l2 -358q0 -125 -94 -207q-95 -86 -284 -86q-208 0 -293 67q-86 68 -86 199q0 31 32 31h103q33 0 33 -31q0 -59 43 -86t170 -27q198 0 198 138q0 95 -149 122l-199 35q-270 46 -270 279v373q0 124 98 206q101 84 281 84q195 0 286 -73q92 -74 92 -185 q0 -24 -24 -24h-119q-33 0 -39 37q-15 88 -196 88q-199 0 -199 -136q0 -53 27.5 -82t85.5 -40l194 -35q177 -30 240 -105q67 -79 67 -184zM408 461l194 -37q80 -16 129 -31l2 2v121q0 112 -149 139l-199 35q-41 7 -88 23l-2 -2v-121q0 -108 113 -129z" />
<glyph unicode="&#xa8;" horiz-adv-x="856" d="M135 1139q0 47 33 80q32 32 80 32t80 -32t32 -80t-32 -80q-33 -33 -80 -33t-80 33t-33 80zM500 1139q0 48 32 80t80 32t80 -32q33 -33 33 -80t-33 -80t-80 -33t-80 33q-32 32 -32 80z" />
<glyph unicode="&#xa9;" horiz-adv-x="1351" d="M102 635q0 237 168 405t406 168q237 0 405 -168t168 -405q0 -238 -168 -406t-405 -168q-238 0 -406 168t-168 406zM213 635l-4 -2q0 -193 135 -328t330 -135t330 135t135 330q0 193 -135 328t-328 135t-328 -135t-135 -328zM930 723l-2 -6q4 -16 4 -21q0 -20 -23 -20h-65 q-16 0 -19 18l-6 17q-30 86 -147 86q-76 0 -123 -47q-45 -45 -45 -123q0 -77 49 -123q48 -45 131 -45q104 0 178 80q9 6 17 6q9 0 12 -6l37 -39q6 -6 6 -15q0 -8 -8 -16q-88 -104 -242 -104q-128 0 -209 69q-82 70 -82 197q0 125 80 196q79 70 199 70q221 0 258 -174z" />
<glyph unicode="&#xaa;" horiz-adv-x="700" d="M492 670l-11 4l-22 -15q-88 -55 -193 -55q-99 0 -155 47t-56 117q0 71 58 117q59 47 178 47h196v12q0 119 -157 119q-125 0 -125 -74v-4q0 -12 -23 -12h-82q-6 0 -14 8t-8 14v4q0 77 65 127t191 50q144 0 215 -68q69 -66 69 -180v-291q0 -6 -8 -14q-9 -9 -14 -9h-66 q-15 0 -24 21zM274 717h-2q131 0 211 65v54h-200q-103 0 -103 -58q0 -24 25 -43q24 -18 69 -18z" />
<glyph unicode="&#xab;" horiz-adv-x="942" d="M82 451q0 15 31 55l280 338q11 20 31 20q17 0 25 -8l22 -16q16 -10 16 -25q0 -10 -12 -31l-184 -333l184 -334q12 -21 12 -31q0 -15 -16 -25l-22 -16q-8 -8 -25 -8q-19 0 -31 18l-280 338q-31 39 -31 58zM475 451q0 15 31 55l280 338q11 20 31 20q17 0 25 -8l22 -16 q17 -10 17 -25q0 -8 -13 -31l-184 -333l184 -334q13 -23 13 -31q0 -15 -17 -25l-22 -16q-8 -8 -25 -8q-19 0 -31 18l-280 338q-31 39 -31 58z" />
<glyph unicode="&#xac;" horiz-adv-x="1024" d="M922 713v-477h-140v337h-680v140h820z" />
<glyph unicode="&#xad;" horiz-adv-x="696" d="M604 410h-512v139h512v-139z" />
<glyph unicode="&#xae;" horiz-adv-x="1351" d="M102 635q0 237 168 405t406 168q237 0 405 -168t168 -405q0 -238 -168 -406t-405 -168q-238 0 -406 168t-168 406zM213 635l-4 -2q0 -193 135 -328t330 -135t330 135t135 330q0 193 -135 328t-328 135t-328 -135t-135 -328zM928 719h-2q0 -117 -135 -166v-6 q22 -15 43 -43l102 -123v-8h-127l-133 162h-121v-162h-111v532h265q97 0 157 -51q62 -53 62 -135zM690 813h-135v-186h139q121 0 121 92q0 94 -125 94z" />
<glyph unicode="&#xaf;" horiz-adv-x="716" d="M113 1106v123h491v-123h-491z" />
<glyph unicode="&#xb0;" horiz-adv-x="806" d="M96 940v-2q0 129 90 219t215 90t215 -90q91 -91 91 -219q0 -124 -91 -215q-88 -88 -215 -88q-125 0 -215 90t-90 215zM229 938l-4 -2q0 -69 54 -123q51 -51 122 -51q72 0 123 51q54 54 54 123q0 71 -52 123q-53 53 -123 53q-71 0 -122 -51q-52 -52 -52 -123z" />
<glyph unicode="&#xb1;" horiz-adv-x="1024" d="M922 594h-340v-328h-140v328h-340v139h340v328h140v-328h340v-139zM922 66h-820v139h820v-139z" />
<glyph unicode="&#xb2;" horiz-adv-x="833" d="M80 438l8 90l379 263q135 95 135 190q0 58 -49 98q-48 39 -137 39t-135 -43q-48 -45 -48 -119q0 -22 -18 -22h-117q-20 0 -20 12q0 138 80 221q79 82 256 82q153 0 245 -80q93 -81 93 -186q0 -88 -52 -152q-53 -65 -178 -153l-106 -74l-56 -29v-6h383q7 0 13 -6t6 -12 v-94q0 -7 -6 -13t-13 -6h-663z" />
<glyph unicode="&#xb3;" horiz-adv-x="831" d="M463 784l-94 2q-6 0 -13 7q-6 6 -6 12v92q0 6 6 12t13 6h63q141 0 141 101q0 102 -165 102q-157 0 -172 -108q0 -23 -19 -23h-119q-18 0 -18 12q0 107 84 179q83 71 239 71q165 0 244 -67q80 -68 80 -166q0 -99 -94 -154v-4q61 -18 98 -67t37 -111q0 -107 -92 -184 q-91 -76 -262 -76q-163 0 -258 74t-95 190q0 14 21 14h117q17 0 20 -22q3 -57 53 -92q47 -33 140 -33q95 0 147 37q53 38 53 94q0 48 -39 74q-42 28 -110 28z" />
<glyph unicode="&#xb4;" horiz-adv-x="962" d="M715 1374l30 -26q23 -20 23 -48q0 -34 -35 -61l-244 -203q-13 -10 -30 -10h-66q-16 0 -16 14q0 10 12 25l207 283q33 45 70 45q27 0 49 -19z" />
<glyph unicode="&#xb5;" horiz-adv-x="1075" d="M303 805v-459q0 -102 45 -156q46 -55 135 -55q106 0 183 53q78 53 108 140v477q0 10 12 22q13 13 23 13h111q9 0 22 -13q12 -12 12 -22v-770q0 -11 -12 -23t-20 -12h-84q-22 0 -37 37l-27 65h-10l-10 -10q-110 -110 -283 -110q-81 0 -166 32l-2 -2v-487q0 -11 -12 -23 t-23 -12h-110q-11 0 -23 12t-12 23v1280q0 10 12 22q13 13 23 13h110q10 0 23 -13q12 -12 12 -22z" />
<glyph unicode="&#xb6;" horiz-adv-x="1118" d="M791 -121l-3 1227h-204v-1227h-123v633h-49q-142 0 -246 98q-105 99 -105 250q0 170 109 270q108 99 283 99h604v-123h-144v-1227h-122z" />
<glyph unicode="&#xb7;" horiz-adv-x="491" d="M135 512q0 47 33 80t80 33t80 -33q32 -32 32 -80t-32 -80q-33 -33 -80 -33t-80 33t-33 80z" />
<glyph unicode="&#xb8;" horiz-adv-x="626" d="M90 -377l14 49q3 19 31 13q83 -17 137 -17q99 0 99 58q0 26 -15 38q-16 13 -55 13h-131q-34 0 -31 35l25 188h125l-8 -119h61q75 0 115 -43q41 -44 41 -112q0 -77 -58 -123q-59 -47 -168 -47q-62 0 -159 20q-27 6 -27 23q0 4 4 24z" />
<glyph unicode="&#xb9;" horiz-adv-x="602" d="M481 1249l-6 -792q0 -5 -6 -11t-12 -6h-115q-6 0 -12 6t-6 11v553l-7 4l-161 -135q-15 -12 -27 0l-63 73q-3 3 0 13q3 9 6 12l327 272h82z" />
<glyph unicode="&#xba;" horiz-adv-x="733" d="M367 1174h-5q135 0 220 -76q86 -77 86 -211t-86 -211q-85 -76 -217 -76q-133 0 -218 76q-86 77 -86 211t86 211q85 76 220 76zM541 887q0 76 -49 125t-127 49q-80 0 -129 -49q-50 -50 -50 -125t50 -125q49 -49 129 -49q78 0 127 49t49 125z" />
<glyph unicode="&#xbb;" horiz-adv-x="942" d="M860 451q0 -19 -31 -58l-280 -338q-12 -18 -31 -18q-16 0 -24 8l-23 16q-16 10 -16 25q0 10 12 31l184 334l-184 333q-12 21 -12 31q0 15 16 25l23 16q8 8 24 8q20 0 31 -20l280 -338q31 -40 31 -55zM467 451q0 -19 -31 -58l-280 -338q-12 -18 -31 -18q-17 0 -25 8 l-22 16q-17 10 -17 25q0 8 13 31l184 334l-184 333q-13 23 -13 31q0 15 17 25l22 16q8 8 25 8q20 0 31 -20l280 -338q31 -40 31 -55z" />
<glyph unicode="&#xbc;" horiz-adv-x="1650" d="M1597 164h-108v-144q0 -6 -6 -12t-13 -6h-114q-7 0 -13 6t-6 12v144h-487v100l475 547h168v-516h104q7 0 13 -6t6 -13v-94q0 -6 -6 -12t-13 -6zM1108 295h223v231l8 119l-8 2q-57 -88 -67 -98l-172 -199l-66 -57l2 -4q58 6 80 6zM475 1249l-6 -792q0 -5 -6 -11t-12 -6 h-115q-6 0 -12 6q-7 7 -7 11v553l-6 4l-161 -135q-15 -12 -27 0l-64 73q-3 3 0 13q3 7 7 12l327 272h82zM279 0l976 1303l97 -74l-977 -1301z" />
<glyph unicode="&#xbd;" horiz-adv-x="1794" d="M1042 0l9 90l379 262q135 94 135 191q0 58 -49 98q-48 39 -138 39q-89 0 -135 -43q-47 -44 -47 -119q0 -22 -18 -22h-117q-21 0 -21 12q0 138 80 221q79 82 256 82q154 0 246 -80t92 -186q0 -89 -51 -152q-53 -65 -178 -153l-107 -74l-55 -29v-6h383q6 0 12 -6t6 -12v-95 q0 -6 -6 -12t-12 -6h-664zM489 1245l-6 -792q0 -5 -6 -11t-12 -6h-115q-6 0 -12 6t-6 11v553l-6 4l-162 -136q-15 -12 -27 0l-63 74q-3 3 0 13q3 9 6 12l328 272h81zM289 -2l977 1300l96 -73l-977 -1301z" />
<glyph unicode="&#xbe;" horiz-adv-x="1847" d="M463 784l-94 2q-6 0 -13 7q-6 6 -6 12v92q0 6 6 12t13 6h63q141 0 141 101q0 102 -165 102q-157 0 -172 -108q0 -23 -19 -23h-119q-18 0 -18 12q0 107 84 179q83 71 239 71q165 0 244 -67q80 -68 80 -166q0 -99 -94 -154v-4q61 -18 98 -67t37 -111q0 -107 -92 -184 q-91 -76 -262 -76q-163 0 -258 74t-95 190q0 14 21 14h117q17 0 20 -22q3 -57 53 -92q47 -33 140 -33q95 0 147 37q53 38 53 94q0 48 -39 74q-42 28 -110 28zM1792 166h-109v-143q0 -7 -6 -13t-12 -6h-115q-6 0 -12 6t-6 13v143h-488v100l476 547h168v-516h104q6 0 12 -6 t6 -12v-95q0 -6 -6 -12t-12 -6zM1303 297h223v231l8 119l-8 2q-55 -85 -68 -98l-172 -199l-65 -57l2 -4q59 6 80 6zM465 2l977 1303l96 -74l-977 -1301z" />
<glyph unicode="&#xbf;" horiz-adv-x="839" d="M633 -147h104q33 0 33 -31q0 -131 -92 -211t-248 -80q-160 0 -260 86q-98 85 -98 229q0 181 204 299l29 17q57 34 57 123v100q0 10 13 23q12 12 22 12h111q10 0 22 -12q13 -13 13 -23v-100q0 -97 -33 -150q-34 -55 -129 -108l-33 -19q-98 -52 -98 -164q0 -72 47 -116 q46 -43 133 -43q73 0 121 39q49 40 49 98q0 31 33 31zM565 688q0 -46 -30 -80q-29 -33 -78 -33t-78 33q-31 36 -31 80t31 80q29 33 78 33t78 -33q30 -34 30 -80z" />
<glyph unicode="&#xc0;" horiz-adv-x="1409" d="M1159 27l-112 227h-682l-113 -227q-10 -20 -16 -23q-8 -4 -25 -4h-133q-19 0 -19 14q0 1 1.5 4l4.5 9t5 12l602 1190h73l603 -1190q10 -23 10 -25q0 -14 -19 -14h-133h-20q-6 0 -12 6t-15 21zM608 737l-166 -327h527l-164 327q-12 22 -39 84q-24 55 -39 99l-14 43h-13 q-50 -140 -92 -226zM473 1659l29 27q18 18 51 18q37 0 70 -45l206 -283q13 -16 13 -24q0 -15 -17 -15h-65q-16 0 -31 11l-244 202q-34 27 -34 62q0 25 22 47z" />
<glyph unicode="&#xc1;" horiz-adv-x="1409" d="M1159 27l-112 227h-682l-113 -227q-10 -20 -16 -23q-8 -4 -25 -4h-133q-19 0 -19 14q0 1 1.5 4l4.5 9t5 12l602 1190h73l603 -1190q10 -23 10 -25q0 -14 -19 -14h-133h-20q-6 0 -12 6t-15 21zM608 737l-166 -327h527l-164 327q-12 22 -39 84q-24 55 -39 99l-14 43h-13 q-50 -140 -92 -226zM913 1686l31 -27q23 -20 23 -47q0 -35 -35 -62l-244 -202q-15 -11 -31 -11h-65q-17 0 -17 15q0 8 13 24l207 283q33 45 69 45q28 0 49 -18z" />
<glyph unicode="&#xc2;" horiz-adv-x="1409" d="M1159 27l-112 227h-682l-113 -227q-10 -20 -16 -23q-8 -4 -25 -4h-133q-19 0 -19 14q0 1 1.5 4l4.5 9t5 12l602 1190h73l603 -1190q10 -23 10 -25q0 -14 -19 -14h-133h-20q-6 0 -12 6t-15 21zM608 737l-166 -327h527l-164 327q-12 22 -39 84q-24 55 -39 99l-14 43h-13 q-50 -140 -92 -226zM700 1690l9 2q30 0 71 -41l240 -232q18 -18 18 -28q0 -17 -14 -25l-33 -20q-18 -11 -28 -11q-7 0 -43 25l-215 149l-216 -149q-36 -25 -43 -25q-10 0 -28 11l-33 20q-14 8 -14 23q0 10 18 28l240 232q41 41 71 41z" />
<glyph unicode="&#xc3;" horiz-adv-x="1409" d="M1159 27l-112 227h-682l-113 -227q-10 -20 -16 -23q-8 -4 -25 -4h-133q-19 0 -19 14q0 1 1.5 4l4.5 9t5 12l602 1190h73l603 -1190q10 -23 10 -25q0 -14 -19 -14h-133h-20q-6 0 -12 6t-15 21zM608 737l-166 -327h527l-164 327q-12 22 -39 84q-24 55 -39 99l-14 43h-13 q-50 -140 -92 -226zM453 1335h-62q-31 0 -31 27q0 254 193 254q76 0 135 -47l84 -68q55 -43 84 -43q74 0 74 131q0 27 31 27h61q31 0 31 -27q0 -254 -193 -254q-76 0 -135 47l-84 68q-55 43 -84 43q-74 0 -74 -131q0 -27 -30 -27z" />
<glyph unicode="&#xc4;" horiz-adv-x="1409" d="M1159 27l-112 227h-682l-113 -227q-10 -20 -16 -23q-8 -4 -25 -4h-133q-19 0 -19 14q0 1 1.5 4l4.5 9t5 12l602 1190h73l603 -1190q10 -23 10 -25q0 -14 -19 -14h-133h-20q-6 0 -12 6t-15 21zM608 737l-166 -327h527l-164 327q-12 22 -39 84q-24 55 -39 99l-14 43h-13 q-50 -140 -92 -226zM414 1446q0 46 30 80q29 33 78 33t78 -33q31 -36 31 -80t-31 -80q-29 -33 -78 -33t-78 33q-30 34 -30 80zM778 1446q0 44 31 80q29 33 78 33t78 -33q30 -34 30 -80t-30 -80q-29 -33 -78 -33t-78 33q-31 36 -31 80z" />
<glyph unicode="&#xc5;" horiz-adv-x="1409" d="M1159 27l-112 227h-682l-113 -227q-10 -20 -16 -23q-8 -4 -25 -4h-133q-19 0 -19 14q0 1 1.5 4l4.5 9t5 12l602 1190h73l603 -1190q10 -23 10 -25q0 -14 -19 -14h-133h-20q-6 0 -12 6t-15 21zM608 737l-166 -327h527l-164 327q-12 22 -39 84q-24 55 -39 99l-14 43h-13 q-50 -140 -92 -226zM481 1524h-4q0 87 62 149t163 62q102 0 164 -62t62 -149q0 -88 -62 -150q-61 -61 -161 -61q-101 0 -162 61q-62 62 -62 150zM600 1524v-2q0 -45 29 -74q27 -27 73 -27q45 0 74 29t29 74q0 42 -29 71t-74 29q-44 0 -73 -29t-29 -71z" />
<glyph unicode="&#xc6;" horiz-adv-x="1785" d="M1593 557l-632 -2v-401h716q8 0 19 -11q10 -10 10 -18v-98q0 -9 -10 -19q-8 -8 -19 -8h-872q-13 0 -19 6q-8 8 -8 19v229h-440l-123 -227q-10 -20 -16 -23q-8 -4 -27 -4h-133q-19 0 -19 14q0 1 1.5 4l4.5 9t5 12l631 1165q12 25 40 25h953q8 0 18 -10t10 -19v-98 q0 -9 -10 -19t-18 -10h-697v-360h635q8 0 19 -11q10 -10 10 -18v-98q0 -9 -10 -19t-19 -10zM668 856l-244 -448h356v663h-16q-34 -99 -96 -215z" />
<glyph unicode="&#xc7;" horiz-adv-x="1431" d="M1298 758l-124 -6q-17 0 -23 6q-5 5 -8 28q-9 129 -115 215t-285 86q-202 0 -331 -129t-129 -350q0 -219 129 -348t331 -129q178 0 285 78q105 76 117 203q3 23 8 28q6 6 27 6h114q33 0 33 -16q0 -188 -160 -321q-155 -129 -426 -129q-281 0 -460 170q-181 172 -181 462 q0 289 183 463q181 172 460 172q276 0 431 -143t155 -326q0 -20 -31 -20zM600 -383l14 49q3 18 31 12q78 -16 137 -16q99 0 99 57q0 27 -15 39q-16 13 -55 13h-131q-34 0 -31 34l25 189h125l-8 -119h61q75 0 115 -43q41 -44 41 -113q0 -76 -58 -122q-60 -48 -168 -48 q-57 0 -159 21q-27 6 -27 22q0 5 4 25z" />
<glyph unicode="&#xc8;" horiz-adv-x="1245" d="M1053 557l-697 -4v-401h779q7 0 18 -11q10 -10 10 -18v-98q0 -9 -10 -19q-8 -8 -18 -8h-934q-10 0 -19 6q-8 8 -8 19v1179q0 11 8 19t19 8h913q9 0 19 -10t10 -19v-98q0 -9 -10 -19t-19 -10h-758v-360h697q7 0 18 -11q10 -10 10 -18v-98q0 -9 -10 -19t-18 -10zM434 1657 l29 26q19 19 51 19q37 0 70 -45l207 -283q12 -15 12 -24q0 -15 -17 -15h-65q-16 0 -31 11l-244 202q-34 27 -34 62q0 25 22 47z" />
<glyph unicode="&#xc9;" horiz-adv-x="1245" d="M1053 557l-697 -4v-401h779q7 0 18 -11q10 -10 10 -18v-98q0 -9 -10 -19q-8 -8 -18 -8h-934q-10 0 -19 6q-8 8 -8 19v1179q0 11 8 19t19 8h913q9 0 19 -10t10 -19v-98q0 -9 -10 -19t-19 -10h-758v-360h697q7 0 18 -11q10 -10 10 -18v-98q0 -9 -10 -19t-18 -10zM813 1681 l31 -26q22 -19 22 -47q0 -35 -35 -62l-243 -203q-13 -10 -31 -10h-65q-17 0 -17 15q0 9 12 24l207 283q33 45 70 45q27 0 49 -19z" />
<glyph unicode="&#xca;" horiz-adv-x="1245" d="M1053 557l-697 -4v-401h779q7 0 18 -11q10 -10 10 -18v-98q0 -9 -10 -19q-8 -8 -18 -8h-934q-10 0 -19 6q-8 8 -8 19v1179q0 11 8 19t19 8h913q9 0 19 -10t10 -19v-98q0 -9 -10 -19t-19 -10h-758v-360h697q7 0 18 -11q10 -10 10 -18v-98q0 -9 -10 -19t-18 -10zM641 1665 l8 2q31 0 72 -41l240 -231q18 -18 18 -29q0 -17 -14 -25l-33 -20q-17 -10 -29 -10q-9 0 -43 24l-215 150l-215 -150q-34 -24 -43 -24q-12 0 -29 10l-32 20q-15 9 -15 23q0 10 19 29l239 231q41 41 72 41z" />
<glyph unicode="&#xcb;" horiz-adv-x="1245" d="M1053 557l-697 -4v-401h779q7 0 18 -11q10 -10 10 -18v-98q0 -9 -10 -19q-8 -8 -18 -8h-934q-10 0 -19 6q-8 8 -8 19v1179q0 11 8 19t19 8h913q9 0 19 -10t10 -19v-98q0 -9 -10 -19t-19 -10h-758v-360h697q7 0 18 -11q10 -10 10 -18v-98q0 -9 -10 -19t-18 -10zM354 1442 q0 44 31 80q28 32 78 32t78 -32q30 -34 30 -80t-30 -80q-29 -33 -78 -33t-78 33q-31 36 -31 80zM719 1442q0 44 31 80q28 32 77 32q50 0 78 -32q31 -36 31 -80t-31 -80q-29 -33 -78 -33q-48 0 -77 33q-31 36 -31 80z" />
<glyph unicode="&#xcc;" horiz-adv-x="532" d="M4 1659l29 27q18 18 51 18q37 0 70 -45l206 -283q13 -16 13 -24q0 -15 -17 -15h-65q-16 0 -31 11l-244 202q-32 29 -32 62q0 24 20 47zM356 1204v-1179q0 -11 -8 -19q-6 -6 -18 -6h-131q-13 0 -19 6q-8 8 -8 19v1179q0 11 8 19t19 8h131q10 0 18 -8t8 -19z" />
<glyph unicode="&#xcd;" horiz-adv-x="532" d="M502 1686l30 -27q23 -20 23 -47q0 -35 -35 -62l-244 -202q-15 -11 -30 -11h-66q-16 0 -16 15q0 9 12 24l207 283q33 45 70 45q28 0 49 -18zM358 1204v-1179q0 -11 -8 -19q-6 -6 -18 -6h-131q-13 0 -19 6q-8 8 -8 19v1179q0 11 8 19t19 8h131q10 0 18 -8t8 -19z" />
<glyph unicode="&#xce;" horiz-adv-x="532" d="M260 1690l8 2q31 0 72 -41l240 -232q18 -18 18 -28q0 -17 -14 -25l-33 -20q-18 -11 -29 -11q-7 0 -43 25l-215 149l-215 -149q-36 -25 -43 -25q-8 0 -26 11l-33 20q-15 9 -15 23q0 9 19 28l237 232q41 41 72 41zM352 1206v-1179q0 -11 -8 -19t-18 -8h-131q-11 0 -19 8 t-8 19v1179q0 11 8 19t19 8h131q10 0 18 -8t8 -19z" />
<glyph unicode="&#xcf;" horiz-adv-x="532" d="M356 1204v-1179q0 -11 -8 -19q-6 -6 -18 -6h-131q-13 0 -19 6q-8 8 -8 19v1179q0 11 8 19t19 8h131q10 0 18 -8t8 -19zM-25 1446q0 43 29 80q29 33 78 33t78 -33q30 -34 30 -80t-30 -80q-29 -33 -78 -33t-78 33q-29 37 -29 80zM338 1446q0 44 31 80q29 33 77 33 q49 0 78 -33q31 -36 31 -80t-31 -80q-29 -33 -78 -33q-48 0 -77 33q-31 36 -31 80z" />
<glyph unicode="&#xd0;" horiz-adv-x="1472" d="M33 553v115h143v528q0 10 8 18q9 9 19 9h506q285 0 475 -166t190 -447q0 -293 -166 -452q-165 -158 -479 -158h-526q-13 0 -19 6q-8 8 -8 19v528h-143zM707 1065h-351v-397h332v-123h-332v-398h371q463 0 463 459q0 214 -137 336q-138 123 -346 123z" />
<glyph unicode="&#xd1;" horiz-adv-x="1560" d="M1264 0l-824 842q-15 15 -39 47q-13 17 -26 39l-10 12h-7v-917q0 -11 -8 -19q-9 -6 -18 -6h-131q-10 0 -19 6q-8 8 -8 19v1179q0 11 8 19t19 8h98l805 -823q22 -22 47 -54q23 -29 31 -43l12 -16h8v913q0 11 8 19t19 8h131q10 0 18 -8t8 -19v-1179q0 -11 -8 -19t-18 -8 h-96zM526 1333h-61q-31 0 -31 27q0 254 193 254q76 0 135 -47l84 -68q55 -43 84 -43q74 0 74 131q0 27 30 27h62q30 0 30 -27q0 -254 -192 -254q-76 0 -135 47l-84 68q-55 43 -84 43q-74 0 -74 -131q0 -27 -31 -27z" />
<glyph unicode="&#xd2;" horiz-adv-x="1531" d="M766 1249v4q285 0 475 -172q191 -173 191 -463q0 -289 -191 -462q-188 -170 -475 -170q-285 0 -473 170q-191 173 -191 460q0 288 191 461q190 172 473 172zM766 1098v4q-206 0 -344 -129q-139 -130 -139 -350q0 -218 139 -351q137 -131 344 -131q206 0 344 129 q139 130 139 348q0 223 -137 351q-138 129 -346 129zM492 1667l28 27q18 18 51 18q37 0 70 -45l207 -283q12 -15 12 -24q0 -14 -16 -14h-66q-17 0 -30 10l-244 203q-35 27 -35 61q0 24 23 47z" />
<glyph unicode="&#xd3;" horiz-adv-x="1531" d="M766 1249v4q285 0 475 -172q191 -173 191 -463q0 -289 -191 -462q-188 -170 -475 -170q-285 0 -473 170q-191 173 -191 460q0 288 191 461q190 172 473 172zM766 1098v4q-206 0 -344 -129q-139 -130 -139 -350q0 -218 139 -351q137 -131 344 -131q206 0 344 129 q139 130 139 348q0 223 -137 351q-138 129 -346 129zM952 1694l31 -27q23 -20 23 -47q0 -34 -35 -61l-244 -203q-13 -10 -31 -10h-65q-17 0 -17 14q0 8 13 24l207 283q33 45 69 45q28 0 49 -18z" />
<glyph unicode="&#xd4;" horiz-adv-x="1531" d="M766 1249v4q285 0 475 -172q191 -173 191 -463q0 -289 -191 -462q-188 -170 -475 -170q-285 0 -473 170q-191 173 -191 460q0 288 191 461q190 172 473 172zM766 1098v4q-206 0 -344 -129q-139 -130 -139 -350q0 -218 139 -351q137 -131 344 -131q206 0 344 129 q139 130 139 348q0 223 -137 351q-138 129 -346 129zM760 1698l8 2q31 0 72 -41l239 -232q19 -19 19 -28q0 -16 -15 -25l-32 -20q-18 -11 -29 -11q-7 0 -43 25l-215 150l-215 -150q-36 -25 -43 -25q-11 0 -29 11l-33 20q-14 8 -14 23q0 9 19 28l239 232q41 41 72 41z" />
<glyph unicode="&#xd5;" horiz-adv-x="1531" d="M512 1335h-61q-31 0 -31 27q0 254 192 254q77 0 136 -47l83 -68q55 -43 84 -43q74 0 74 131q0 27 31 27h61q31 0 31 -27q0 -254 -192 -254q-77 0 -136 47l-84 68q-55 43 -84 43q-73 0 -73 -131q0 -27 -31 -27zM766 1249v4q285 0 475 -172q191 -173 191 -463 q0 -289 -191 -462q-188 -170 -475 -170q-285 0 -473 170q-191 173 -191 460q0 288 191 461q190 172 473 172zM766 1098v4q-206 0 -344 -129q-139 -130 -139 -350q0 -218 139 -351q137 -131 344 -131q206 0 344 129q139 130 139 348q0 223 -137 351q-138 129 -346 129z" />
<glyph unicode="&#xd6;" horiz-adv-x="1531" d="M766 1249v4q285 0 475 -172q191 -173 191 -463q0 -289 -191 -462q-188 -170 -475 -170q-285 0 -473 170q-191 173 -191 460q0 288 191 461q190 172 473 172zM766 1098v4q-206 0 -344 -129q-139 -130 -139 -350q0 -218 139 -351q137 -131 344 -131q206 0 344 129 q139 130 139 348q0 223 -137 351q-138 129 -346 129zM473 1454q0 44 31 80q29 33 78 33q48 0 77 -33q31 -36 31 -80t-31 -80q-29 -33 -77 -33q-49 0 -78 33q-31 36 -31 80zM838 1454q0 46 30 80q29 33 78 33t78 -33q31 -36 31 -80t-31 -80q-29 -33 -78 -33t-78 33 q-30 34 -30 80z" />
<glyph unicode="&#xd7;" horiz-adv-x="1024" d="M881 852l-273 -272l271 -269l-99 -98l-270 268l-268 -268l-99 98l269 269l-271 272l99 98l270 -272l272 272z" />
<glyph unicode="&#xd8;" horiz-adv-x="1531" d="M766 1249l4 4q242 0 418 -129l129 129l86 -86l-125 -125q154 -171 154 -424q0 -289 -191 -462q-188 -170 -475 -170q-243 0 -420 125l-127 -125l-86 84l123 123q-154 171 -154 423q0 288 191 461q190 172 473 172zM770 1098v-2q-206 0 -344 -129q-139 -130 -139 -351 q0 -173 96 -301l688 691q-127 92 -301 92zM1253 616v2q0 182 -94 304l-688 -691q127 -92 299 -92q206 0 344 129q139 130 139 348z" />
<glyph unicode="&#xd9;" horiz-adv-x="1523" d="M1188 573l-8 629q0 11 8 19t18 8h131q11 0 19 -8t8 -19v-631q0 -293 -162 -442t-444 -149q-281 0 -443 149q-161 148 -161 442v631q0 11 8 19t18 8h131q11 0 19 -8t8 -19v-631q0 -216 111 -327t313 -111q204 0 315 111q114 114 111 329zM500 1657l28 26q19 19 52 19 q36 0 69 -45l207 -283q12 -15 12 -24q0 -15 -16 -15h-66q-15 0 -30 11l-244 202q-35 27 -35 62q0 24 23 47z" />
<glyph unicode="&#xda;" horiz-adv-x="1523" d="M1188 573l-8 629q0 11 8 19t18 8h131q11 0 19 -8t8 -19v-631q0 -293 -162 -442t-444 -149q-281 0 -443 149q-161 148 -161 442v631q0 11 8 19t18 8h131q11 0 19 -8t8 -19v-631q0 -216 111 -327t313 -111q204 0 315 111q114 114 111 329zM981 1683l31 -26q22 -19 22 -47 q0 -35 -35 -62l-243 -202q-15 -11 -31 -11h-66q-16 0 -16 15q0 9 12 24l207 283q33 45 70 45q27 0 49 -19z" />
<glyph unicode="&#xdb;" horiz-adv-x="1523" d="M1188 573l-8 629q0 11 8 19t18 8h131q11 0 19 -8t8 -19v-631q0 -293 -162 -442t-444 -149q-281 0 -443 149q-161 148 -161 442v631q0 11 8 19t18 8h131q11 0 19 -8t8 -19v-631q0 -216 111 -327t313 -111q204 0 315 111q114 114 111 329zM748 1688l8 2q30 0 71 -41 l240 -232q18 -18 18 -28q0 -17 -14 -25l-33 -21q-17 -10 -28 -10q-7 0 -43 25l-215 149l-215 -149q-36 -25 -43 -25q-12 0 -29 10l-33 21q-14 8 -14 22q0 11 18 29l240 232q41 41 72 41z" />
<glyph unicode="&#xdc;" horiz-adv-x="1523" d="M1188 573l-8 629q0 11 8 19t18 8h131q11 0 19 -8t8 -19v-631q0 -293 -162 -442t-444 -149q-281 0 -443 149q-161 148 -161 442v631q0 11 8 19t18 8h131q11 0 19 -8t8 -19v-631q0 -216 111 -327t313 -111q204 0 315 111q114 114 111 329zM461 1444q0 44 31 80q28 32 77 32 q50 0 78 -32q31 -36 31 -80t-31 -80q-29 -33 -78 -33q-48 0 -77 33q-31 36 -31 80zM825 1444q0 44 31 80q28 32 78 32t78 -32q30 -34 30 -80t-30 -80q-29 -33 -78 -33t-78 33q-31 36 -31 80z" />
<glyph unicode="&#xdd;" horiz-adv-x="1282" d="M551 514l-526 686q-9 9 -9 17q0 12 13 12h155q30 0 49 -25l310 -403l88 -125h12q62 90 88 125l309 403q19 25 50 25h155q12 0 12 -12q0 -9 -8 -17l-522 -686v-489q0 -10 -6 -19q-4 -6 -16 -6h-132q-12 0 -16 6q-6 9 -6 19v489zM885 1686l28 -27q23 -23 23 -47 q0 -35 -35 -62l-244 -202q-15 -11 -30 -11h-66q-16 0 -16 15q0 9 12 24l207 283q33 45 70 45q30 0 51 -18z" />
<glyph unicode="&#xde;" horiz-adv-x="1265" d="M356 1204l-2 -160h348q227 0 363 -112q139 -115 139 -314q0 -197 -139 -309q-137 -110 -360 -110h-349v-174q0 -11 -8 -19q-6 -6 -18 -6h-131q-13 0 -19 6q-8 8 -8 19v1179q0 11 8 19t19 8h131q10 0 18 -8t8 -19zM698 889h-344v-535h344q146 0 234 70q90 72 90 197 q0 126 -88 196q-90 72 -236 72z" />
<glyph unicode="&#xdf;" horiz-adv-x="1140" d="M498 106l49 70q21 24 43 8q77 -59 141 -59q69 0 103 43t34 96q0 112 -120 152l-62 20q-119 41 -164 92q-47 53 -47 140q0 55 31 106t67 80q39 31 68 76q31 48 31 98q0 83 -45 131q-46 49 -138 49q-85 0 -137 -61q-51 -60 -51 -180v-940q0 -11 -12 -23q-13 -10 -23 -10 h-110q-10 0 -23 10q-12 12 -12 23v940q0 190 102 295q101 104 264 104q180 0 275 -92q96 -93 96 -244q0 -71 -31 -131q-30 -58 -67 -88q-38 -30 -68 -68t-30 -69q0 -56 83 -86l58 -21q252 -89 252 -295q0 -110 -80 -202q-78 -90 -236 -90q-125 0 -235 77q-27 21 -6 49z" />
<glyph unicode="&#xe0;" horiz-adv-x="1054" d="M762 96l-6 -6l-31 -24q-113 -91 -305 -91q-154 0 -236 70q-80 71 -80 184q0 106 84 172t265 66h309v33q0 101 -53 151q-52 49 -197 49q-107 0 -154 -30q-45 -29 -45 -99v-6q0 -18 -34 -18h-111q-9 0 -21 12t-12 23v6q0 124 92 198t287 74q226 0 326 -100 q102 -102 102 -277v-448q0 -11 -12 -23t-23 -12h-86q-18 0 -33 35zM420 129v2q95 0 190 31q92 30 152 78v90h-309q-170 0 -170 -103q0 -98 137 -98zM319 1343l29 27q19 19 51 19q36 0 70 -46l207 -282q12 -15 12 -25q0 -14 -16 -14h-66q-18 0 -31 10l-243 203q-35 27 -35 61 q0 25 22 47z" />
<glyph unicode="&#xe1;" horiz-adv-x="1054" d="M762 96l-6 -6l-31 -24q-113 -91 -305 -91q-154 0 -236 70q-80 71 -80 184q0 106 84 172t265 66h309v33q0 101 -53 151q-52 49 -197 49q-107 0 -154 -30q-45 -29 -45 -99v-6q0 -18 -34 -18h-111q-9 0 -21 12t-12 23v6q0 124 92 198t287 74q226 0 326 -100 q102 -102 102 -277v-448q0 -11 -12 -23t-23 -12h-86q-18 0 -33 35zM420 129v2q95 0 190 31q92 30 152 78v90h-309q-170 0 -170 -103q0 -98 137 -98zM719 1370l31 -27q22 -19 22 -47q0 -34 -35 -61l-243 -203q-13 -10 -31 -10h-66q-16 0 -16 14q0 10 12 25l207 282 q34 46 70 46q27 0 49 -19z" />
<glyph unicode="&#xe2;" horiz-adv-x="1054" d="M762 96l-6 -6l-31 -24q-113 -91 -305 -91q-154 0 -236 70q-80 71 -80 184q0 106 84 172t265 66h309v33q0 101 -53 151q-52 49 -197 49q-107 0 -154 -30q-45 -29 -45 -99v-6q0 -18 -34 -18h-111q-9 0 -21 12t-12 23v6q0 124 92 198t287 74q226 0 326 -100 q102 -102 102 -277v-448q0 -11 -12 -23t-23 -12h-86q-18 0 -33 35zM420 129v2q95 0 190 31q92 30 152 78v90h-309q-170 0 -170 -103q0 -98 137 -98zM528 1378l9 2q30 0 71 -41l240 -231q18 -18 18 -29q0 -16 -14 -24l-33 -21q-17 -10 -28 -10q-7 0 -43 25l-216 149 l-215 -149q-36 -25 -43 -25q-11 0 -28 10l-33 21q-14 8 -14 22q0 11 18 29l240 231q41 41 71 41z" />
<glyph unicode="&#xe3;" horiz-adv-x="1054" d="M762 96l-6 -6l-31 -24q-113 -91 -305 -91q-154 0 -236 70q-80 71 -80 184q0 106 84 172t265 66h309v33q0 101 -53 151q-52 49 -197 49q-107 0 -154 -30q-45 -29 -45 -99v-6q0 -18 -34 -18h-111q-9 0 -21 12t-12 23v6q0 124 92 198t287 74q226 0 326 -100 q102 -102 102 -277v-448q0 -11 -12 -23t-23 -12h-86q-18 0 -33 35zM420 129v2q95 0 190 31q92 30 152 78v90h-309q-170 0 -170 -103q0 -98 137 -98zM274 1018h-61q-31 0 -31 26q0 254 193 254q76 0 135 -47l84 -67q55 -43 84 -43q74 0 74 131q0 26 30 26h62q30 0 30 -26 q0 -254 -192 -254q-76 0 -135 47l-84 68q-55 43 -84 43q-74 0 -74 -132q0 -26 -31 -26z" />
<glyph unicode="&#xe4;" horiz-adv-x="1054" d="M762 96l-6 -6l-31 -24q-113 -91 -305 -91q-154 0 -236 70q-80 71 -80 184q0 106 84 172t265 66h309v33q0 101 -53 151q-52 49 -197 49q-107 0 -154 -30q-45 -29 -45 -99v-6q0 -18 -34 -18h-111q-9 0 -21 12t-12 23v6q0 124 92 198t287 74q226 0 326 -100 q102 -102 102 -277v-448q0 -11 -12 -23t-23 -12h-86q-18 0 -33 35zM420 129v2q95 0 190 31q92 30 152 78v90h-309q-170 0 -170 -103q0 -98 137 -98zM233 1114q0 47 33 80t80 33t80 -33t33 -80t-33 -80t-80 -33t-80 33t-33 80zM598 1114q0 47 33 80t80 33t80 -33 q32 -32 32 -80t-32 -80q-33 -33 -80 -33t-80 33t-33 80z" />
<glyph unicode="&#xe5;" horiz-adv-x="1054" d="M762 96l-6 -6l-31 -24q-113 -91 -305 -91q-154 0 -236 70q-80 71 -80 184q0 106 84 172t265 66h309v33q0 101 -53 151q-52 49 -197 49q-107 0 -154 -30q-45 -29 -45 -99v-6q0 -18 -34 -18h-111q-9 0 -21 12t-12 23v6q0 124 92 198t287 74q226 0 326 -100 q102 -102 102 -277v-448q0 -11 -12 -23t-23 -12h-86q-18 0 -33 35zM420 129v2q95 0 190 31q92 30 152 78v90h-309q-170 0 -170 -103q0 -98 137 -98zM299 1249h-4q0 89 61 150t164 61t164 -61t61 -150q0 -88 -61 -149q-62 -62 -162 -62t-162 62q-61 61 -61 149zM418 1249v-2 q0 -45 28 -73q27 -27 74 -27q45 0 74 29t29 73q0 43 -29 72t-74 29t-74 -29q-28 -28 -28 -72z" />
<glyph unicode="&#xe6;" horiz-adv-x="1761" d="M1587 240l39 -45q14 -14 14 -33t-24 -43q-145 -142 -381 -142q-248 0 -381 154h-8q-20 -20 -53 -43q-84 -59 -162 -86q-83 -25 -193 -25q-158 0 -245 72q-91 76 -91 189q0 109 84 178q82 67 265 67h309v17q0 101 -53 151q-52 49 -197 49q-108 0 -154 -30q-45 -29 -45 -99 v-6q0 -18 -35 -18h-110q-9 0 -21 12t-12 23v6q0 124 92 198t287 74q247 0 356 -133h11q133 133 344 133q212 0 325 -110q122 -118 113 -277l-6 -121h-711q18 -98 98 -157q82 -60 197 -60q170 0 277 98q21 21 38 21q19 0 33 -14zM1219 700q-110 0 -189 -55t-88 -162h531 q-6 217 -254 217zM436 131v2q200 0 322 111l20 18q-14 32 -20 86h-309q-170 0 -170 -110q0 -51 43 -78q47 -29 114 -29z" />
<glyph unicode="&#xe7;" horiz-adv-x="1099" d="M993 569l-4 -2q4 -28 4 -32q0 -15 -10 -25t-25 -10h-110q-28 0 -37 30l-8 29q-42 143 -246 143q-132 0 -205 -79t-73 -205q0 -132 81 -207q84 -78 222 -78q168 0 295 133q10 10 24 10q18 0 23 -8l59 -65q10 -10 10 -23q0 -15 -12 -30q-145 -173 -401 -173 q-211 0 -344 115q-136 118 -136 326q0 209 131 325q132 117 332 117q171 0 283 -69t147 -222zM406 -379l14 49q3 19 31 13q83 -17 137 -17q98 0 98 58q0 27 -14 38q-16 13 -56 13h-131q-33 0 -30 35l24 188h125l-8 -119h61q75 0 115 -43q41 -44 41 -112q0 -78 -57 -123 q-59 -47 -168 -47q-63 0 -160 20q-27 6 -27 23q0 3 1 6.5t2 8.5t2 9z" />
<glyph unicode="&#xe8;" horiz-adv-x="1105" d="M932 240l39 -43q14 -14 14 -33t-24 -43q-144 -141 -381 -141q-208 0 -342 114q-140 119 -140 324q0 188 127 315q125 125 338 125t326 -110q121 -117 112 -277l-6 -104h-710q12 -102 96 -168q82 -64 203 -64q169 0 276 98q21 21 39 21q19 0 33 -14zM563 702 q-110 0 -184 -51q-77 -53 -92 -149h530q-15 200 -254 200zM362 1346l29 26q19 19 51 19q37 0 70 -45l207 -283q12 -15 12 -25q0 -14 -16 -14h-66q-18 0 -31 10l-243 203q-35 27 -35 61q0 26 22 48z" />
<glyph unicode="&#xe9;" horiz-adv-x="1105" d="M932 240l39 -43q14 -14 14 -33t-24 -43q-144 -141 -381 -141q-208 0 -342 114q-140 119 -140 324q0 188 127 315q125 125 338 125t326 -110q121 -117 112 -277l-6 -104h-710q12 -102 96 -168q82 -64 203 -64q169 0 276 98q21 21 39 21q19 0 33 -14zM563 702 q-110 0 -184 -51q-77 -53 -92 -149h530q-15 200 -254 200zM735 1372l31 -26q22 -19 22 -48q0 -34 -34 -61l-244 -203q-13 -10 -31 -10h-65q-17 0 -17 14q0 9 13 25l206 283q33 45 70 45q27 0 49 -19z" />
<glyph unicode="&#xea;" horiz-adv-x="1105" d="M932 240l39 -43q14 -14 14 -33t-24 -43q-144 -141 -381 -141q-208 0 -342 114q-140 119 -140 324q0 188 127 315q125 125 338 125t326 -110q121 -117 112 -277l-6 -104h-710q12 -102 96 -168q82 -64 203 -64q169 0 276 98q21 21 39 21q19 0 33 -14zM563 702 q-110 0 -184 -51q-77 -53 -92 -149h530q-15 200 -254 200zM561 1380l8 2q31 0 72 -41l240 -231q18 -18 18 -29q0 -16 -14 -24l-33 -21q-17 -10 -29 -10q-7 0 -43 25l-215 149l-215 -149q-36 -25 -43 -25q-11 0 -28 10l-33 21q-15 9 -15 22q0 10 19 29l239 231q41 41 72 41z " />
<glyph unicode="&#xeb;" horiz-adv-x="1105" d="M932 240l39 -43q14 -14 14 -33t-24 -43q-144 -141 -381 -141q-208 0 -342 114q-140 119 -140 324q0 188 127 315q125 125 338 125t326 -110q121 -117 112 -277l-6 -104h-710q12 -102 96 -168q82 -64 203 -64q169 0 276 98q21 21 39 21q19 0 33 -14zM563 702 q-110 0 -184 -51q-77 -53 -92 -149h530q-15 200 -254 200zM272 1112q0 44 31 80q29 33 78 33t78 -33q30 -34 30 -80t-30 -80q-29 -33 -78 -33t-78 33q-31 36 -31 80zM637 1112q0 44 31 80q29 33 77 33q49 0 78 -33q31 -36 31 -80t-31 -80q-29 -33 -78 -33q-48 0 -77 33 q-31 36 -31 80z" />
<glyph unicode="&#xec;" horiz-adv-x="425" d="M303 805v-770q0 -11 -12 -23t-23 -12h-110q-11 0 -23 12t-12 23v770q0 10 12 22q13 13 23 13h110q10 0 23 -13q12 -12 12 -22zM-33 1348l29 26q16 19 49 19q37 0 70 -45l207 -283q12 -15 12 -25q0 -14 -17 -14h-65q-18 0 -31 10l-241 203q-35 27 -35 61q0 26 22 48z" />
<glyph unicode="&#xed;" horiz-adv-x="425" d="M303 805v-770q0 -11 -12 -23t-23 -12h-110q-11 0 -23 12t-12 23v770q0 10 12 22q13 13 23 13h110q10 0 23 -13q12 -12 12 -22zM453 1374l30 -26q23 -20 23 -48q0 -34 -35 -61l-244 -203q-13 -10 -30 -10h-66q-16 0 -16 14q0 10 12 25l207 283q33 45 69 45q28 0 50 -19z " />
<glyph unicode="&#xee;" horiz-adv-x="425" d="M186 1382l9 2q30 0 71 -41l240 -231q18 -18 18 -29q0 -16 -14 -24l-33 -21q-17 -10 -28 -10q-7 0 -43 25l-216 149l-213 -149q-36 -25 -43 -25q-11 0 -28 10l-33 21q-14 8 -14 22q0 11 18 29l238 231q41 41 71 41zM299 807v-770q0 -11 -12 -23t-23 -12h-110q-11 0 -23 12 t-12 23v770q0 10 12 22q13 13 23 13h110q10 0 23 -13q12 -12 12 -22z" />
<glyph unicode="&#xef;" horiz-adv-x="425" d="M-68 1110q0 47 33 80t78 33q47 0 80 -33t33 -80t-33 -80t-80 -33q-45 0 -78 33t-33 80zM295 1110q0 47 33 80t80 33q46 0 79 -33t33 -80t-33 -80t-79 -33q-47 0 -80 33t-33 80zM303 805v-770q0 -11 -12 -23t-23 -12h-110q-11 0 -23 12t-12 23v770q0 10 12 22q13 13 23 13 h110q10 0 23 -13q12 -12 12 -22z" />
<glyph unicode="&#xf0;" horiz-adv-x="1126" d="M348 928l-74 94l170 121q-94 46 -233 84q-21 6 -12 39l20 82q6 20 23 20q20 0 59 -10q147 -36 287 -117l182 129l70 -98l-146 -103q328 -261 328 -680q0 -228 -121 -370q-118 -139 -338 -139q-203 0 -332 114q-131 116 -131 326q0 205 127 323q126 117 301 117 q156 0 275 -84l6 4q-59 167 -246 299zM840 414h2q0 142 -82 215t-209 73q-121 0 -197 -79q-75 -78 -75 -205q0 -132 75 -207q78 -78 205 -78q138 0 209 92q72 93 72 189z" />
<glyph unicode="&#xf1;" d="M283 1024h-62q-31 0 -31 27q0 254 193 254q75 0 135 -48l84 -67q55 -43 84 -43q74 0 74 131q0 27 31 27h61q31 0 31 -27q0 -254 -193 -254q-76 0 -135 47l-84 68q-55 43 -84 43q-74 0 -74 -131q0 -27 -30 -27zM772 532l-4 -4q0 80 -47 127t-129 47q-105 0 -182 -53 q-79 -54 -109 -139v-477q0 -11 -12 -23q-10 -10 -23 -10h-110q-13 0 -23 10q-12 12 -12 23v770q0 10 12 22q13 13 23 13h84q20 0 32 -35l29 -80h8l8 10q41 53 117 90q75 37 166 37q348 0 348 -328v-497q0 -11 -12 -23t-21 -12h-110q-9 0 -21 12t-12 23v497z" />
<glyph unicode="&#xf2;" horiz-adv-x="1126" d="M563 860h4q201 0 330 -117t129 -325q0 -210 -131 -326q-130 -115 -332 -115t-332 115q-131 116 -131 326q0 209 131 325q132 117 332 117zM848 420l-4 -2q0 126 -76 205t-203 79t-203 -79q-75 -78 -75 -205q0 -132 75 -207q78 -78 205 -78q126 0 203 80q78 81 78 207z M305 1346l29 26q19 19 51 19q37 0 70 -45l207 -283q12 -15 12 -25q0 -14 -17 -14h-65q-18 0 -31 10l-244 203q-34 27 -34 61q0 26 22 48z" />
<glyph unicode="&#xf3;" horiz-adv-x="1126" d="M563 860h4q201 0 330 -117t129 -325q0 -210 -131 -326q-130 -115 -332 -115t-332 115q-131 116 -131 326q0 209 131 325q132 117 332 117zM848 420l-4 -2q0 126 -76 205t-203 79t-203 -79q-75 -78 -75 -205q0 -132 75 -207q78 -78 205 -78q126 0 203 80q78 81 78 207z M758 1372l28 -26q23 -23 23 -48q0 -34 -35 -61l-244 -203q-13 -10 -30 -10h-66q-16 0 -16 14q0 10 12 25l207 283q33 45 70 45q29 0 51 -19z" />
<glyph unicode="&#xf4;" horiz-adv-x="1126" d="M563 860h4q201 0 330 -117t129 -325q0 -210 -131 -326q-130 -115 -332 -115t-332 115q-131 116 -131 326q0 209 131 325q132 117 332 117zM848 420l-4 -2q0 126 -76 205t-203 79t-203 -79q-75 -78 -75 -205q0 -132 75 -207q78 -78 205 -78q126 0 203 80q78 81 78 207z M545 1380l8 2q31 0 72 -41l239 -231q19 -19 19 -29q0 -15 -15 -24l-32 -21q-17 -10 -29 -10q-7 0 -43 25l-215 149l-215 -149q-36 -25 -43 -25q-12 0 -29 10l-33 21q-14 8 -14 22q0 11 18 29l240 231q41 41 72 41z" />
<glyph unicode="&#xf5;" horiz-adv-x="1126" d="M313 1022h-61q-31 0 -31 27q0 254 193 254q75 0 135 -48l84 -67q55 -43 84 -43q74 0 74 131q0 27 30 27h62q30 0 30 -27q0 -254 -192 -254q-76 0 -135 47l-84 68q-55 43 -84 43q-74 0 -74 -131q0 -27 -31 -27zM563 860h4q201 0 330 -117t129 -325q0 -210 -131 -326 q-130 -115 -332 -115t-332 115q-131 116 -131 326q0 209 131 325q132 117 332 117zM848 420l-4 -2q0 126 -76 205t-203 79t-203 -79q-75 -78 -75 -205q0 -132 75 -207q78 -78 205 -78q126 0 203 80q78 81 78 207z" />
<glyph unicode="&#xf6;" horiz-adv-x="1126" d="M563 860h4q201 0 330 -117t129 -325q0 -210 -131 -326q-130 -115 -332 -115t-332 115q-131 116 -131 326q0 209 131 325q132 117 332 117zM848 420l-4 -2q0 126 -76 205t-203 79t-203 -79q-75 -78 -75 -205q0 -132 75 -207q78 -78 205 -78q126 0 203 80q78 81 78 207z M270 1114q0 49 33 78q36 31 80 31t80 -31q33 -29 33 -78t-33 -78q-35 -30 -80 -30t-80 30q-33 29 -33 78zM635 1114q0 49 33 78q36 31 80 31q43 0 79 -31q33 -29 33 -78t-33 -78q-35 -30 -79 -30q-46 0 -80 30q-33 29 -33 78z" />
<glyph unicode="&#xf7;" horiz-adv-x="1024" d="M401 254q0 47 33 80t80 33t80 -33t33 -80t-33 -80t-80 -33t-80 33t-33 80zM401 909q0 47 33 80t80 33t80 -33t33 -80t-33 -80q-32 -32 -80 -32t-80 32q-33 33 -33 80zM922 512h-820v139h820v-139z" />
<glyph unicode="&#xf8;" horiz-adv-x="1126" d="M123 66l72 71q-93 116 -93 283q0 209 131 325q132 117 332 117q158 0 277 -76l76 76l86 -86l-72 -71q92 -115 92 -283q0 -210 -131 -326q-129 -114 -332 -114q-167 0 -276 73l-76 -73zM283 420h-2q0 -93 36 -158l400 400q-70 43 -156 43q-126 0 -203 -80 q-75 -78 -75 -205zM842 420v-2q0 88 -41 153l-398 -397q65 -41 158 -41q126 0 203 80q78 81 78 207z" />
<glyph unicode="&#xf9;" d="M762 102l-6 -2l-11 -10q-110 -110 -282 -110q-181 0 -264 96q-86 100 -86 270v457q0 10 12 22q13 13 22 13h111q10 0 23 -13q12 -12 12 -22v-457q0 -102 45 -156q46 -55 135 -55q105 0 182 53q79 54 109 140v477q0 10 12 22q13 13 23 13h110q10 0 23 -13q12 -12 12 -22 v-770q0 -11 -12 -23t-23 -12h-84q-22 0 -37 37zM266 1346l29 26q19 19 51 19q37 0 70 -45l207 -283q12 -15 12 -25q0 -14 -17 -14h-65q-18 0 -31 10l-243 203q-35 27 -35 61q0 26 22 48z" />
<glyph unicode="&#xfa;" d="M762 102l-6 -2l-11 -10q-110 -110 -282 -110q-181 0 -264 96q-86 100 -86 270v457q0 10 12 22q13 13 22 13h111q10 0 23 -13q12 -12 12 -22v-457q0 -102 45 -156q46 -55 135 -55q105 0 182 53q79 54 109 140v477q0 10 12 22q13 13 23 13h110q10 0 23 -13q12 -12 12 -22 v-770q0 -11 -12 -23t-23 -12h-84q-22 0 -37 37zM709 1372l28 -26q23 -23 23 -48q0 -34 -35 -61l-244 -203q-13 -10 -30 -10h-66q-16 0 -16 14q0 10 12 25l207 283q33 45 69 45q30 0 52 -19z" />
<glyph unicode="&#xfb;" d="M762 102l-6 -2l-11 -10q-110 -110 -282 -110q-181 0 -264 96q-86 100 -86 270v457q0 10 12 22q13 13 22 13h111q10 0 23 -13q12 -12 12 -22v-457q0 -102 45 -156q46 -55 135 -55q105 0 182 53q79 54 109 140v477q0 10 12 22q13 13 23 13h110q10 0 23 -13q12 -12 12 -22 v-770q0 -11 -12 -23t-23 -12h-84q-22 0 -37 37zM522 1380l8 2q31 0 72 -41l240 -231q18 -18 18 -29q0 -16 -14 -24l-33 -21q-17 -10 -29 -10q-7 0 -43 25l-215 149l-215 -149q-36 -25 -43 -25q-11 0 -28 10l-33 21q-14 8 -14 22q0 11 18 29l240 231q41 41 71 41z" />
<glyph unicode="&#xfc;" d="M762 102l-6 -2l-11 -10q-110 -110 -282 -110q-181 0 -264 96q-86 100 -86 270v457q0 10 12 22q13 13 22 13h111q10 0 23 -13q12 -12 12 -22v-457q0 -102 45 -156q46 -55 135 -55q105 0 182 53q79 54 109 140v477q0 10 12 22q13 13 23 13h110q10 0 23 -13q12 -12 12 -22 v-770q0 -11 -12 -23t-23 -12h-84q-22 0 -37 37zM225 1108q0 47 33 80t80 33t80 -33t33 -80t-33 -80t-80 -33t-80 33t-33 80zM590 1108q0 47 33 80t79 33q47 0 80 -33t33 -80t-33 -80t-80 -33q-46 0 -79 33t-33 80z" />
<glyph unicode="&#xfd;" horiz-adv-x="1003" d="M963 788l-517 -1273q-9 -25 -45 -25h-131q-16 0 -16 16q0 8 10 35l193 473l-414 779q-10 17 -10 30q0 17 18 17h133q34 0 49 -27l261 -489l43 -107h4l241 596q12 27 43 27h131q17 0 17 -17q0 -8 -10 -35zM770 1374l31 -26q22 -19 22 -48q0 -34 -35 -61l-243 -203 q-13 -10 -31 -10h-65q-17 0 -17 14q0 10 12 25l207 283q33 45 70 45q27 0 49 -19z" />
<glyph unicode="&#xfe;" horiz-adv-x="1095" d="M303 1317l-2 -567h10l21 18q104 90 264 90q181 0 289 -123t108 -317q0 -212 -123 -326q-119 -110 -297 -110q-150 0 -239 69l-27 21h-4v-547q0 -11 -12 -23t-23 -12h-110q-11 0 -23 12t-12 23v1792q0 10 12 22q13 13 23 13h110q10 0 23 -13q12 -12 12 -22zM811 418 q0 130 -68 207t-172 77q-97 0 -168 -53q-69 -52 -100 -139v-281q104 -96 258 -96q106 0 178 78t72 207z" />
<glyph unicode="&#xff;" horiz-adv-x="1003" d="M963 788l-517 -1273q-9 -25 -45 -25h-131q-16 0 -16 16q0 8 10 35l193 473l-414 779q-10 17 -10 30q0 17 18 17h133q34 0 49 -27l261 -489l43 -107h4l241 596q12 27 43 27h131q17 0 17 -17q0 -8 -10 -35zM231 1112q0 49 33 78q36 31 80 31t80 -31q33 -29 33 -78t-33 -78 q-35 -30 -80 -30t-80 30q-33 29 -33 78zM596 1112q0 49 33 78q36 31 80 31q43 0 79 -31q33 -29 33 -78t-33 -78q-35 -30 -79 -30q-45 0 -80 30q-33 29 -33 78z" />
<glyph unicode="&#x100;" horiz-adv-x="1409" d="M1159 27l-112 227h-682l-113 -227q-10 -20 -16 -23q-8 -4 -25 -4h-133q-19 0 -19 14q0 1 1.5 4l4.5 9t5 12l602 1190h73l603 -1190q10 -23 10 -25q0 -14 -19 -14h-133h-20q-6 0 -12 6t-15 21zM608 737l-166 -327h527l-164 327q-12 22 -39 84q-24 55 -39 99l-14 43h-13 q-50 -140 -92 -226zM461 1376v123h491v-123h-491z" />
<glyph unicode="&#x101;" horiz-adv-x="1054" d="M762 96l-6 -6l-31 -24q-113 -91 -305 -91q-154 0 -236 70q-80 71 -80 184q0 106 84 172t265 66h309v33q0 101 -53 151q-52 49 -197 49q-107 0 -154 -30q-45 -29 -45 -99v-6q0 -18 -34 -18h-111q-9 0 -21 12t-12 23v6q0 124 92 198t287 74q226 0 326 -100 q102 -102 102 -277v-448q0 -11 -12 -23t-23 -12h-86q-18 0 -33 35zM420 129v2q95 0 190 31q92 30 152 78v90h-309q-170 0 -170 -103q0 -98 137 -98zM295 1071v123h491v-123h-491z" />
<glyph unicode="&#x102;" horiz-adv-x="1409" d="M1159 27l-112 227h-682l-113 -227q-10 -20 -16 -23q-8 -4 -25 -4h-133q-19 0 -19 14q0 1 1.5 4l4.5 9t5 12l602 1190h73l603 -1190q10 -23 10 -25q0 -14 -19 -14h-133h-20q-6 0 -12 6t-15 21zM608 737l-166 -327h527l-164 327q-12 22 -39 84q-24 55 -39 99l-14 43h-13 q-50 -140 -92 -226zM707 1335v-2q-131 0 -205 74t-74 195q0 20 21 20h92q20 0 20 -20q0 -62 41 -103t105 -41q63 0 104 41t41 103q0 20 20 20h93q20 0 20 -20q0 -119 -74 -193t-204 -74z" />
<glyph unicode="&#x103;" horiz-adv-x="1054" d="M762 96l-6 -6l-31 -24q-113 -91 -305 -91q-154 0 -236 70q-80 71 -80 184q0 106 84 172t265 66h309v33q0 101 -53 151q-52 49 -197 49q-107 0 -154 -30q-45 -29 -45 -99v-6q0 -18 -34 -18h-111q-9 0 -21 12t-12 23v6q0 124 92 198t287 74q226 0 326 -100 q102 -102 102 -277v-448q0 -11 -12 -23t-23 -12h-86q-18 0 -33 35zM420 129v2q95 0 190 31q92 30 152 78v90h-309q-170 0 -170 -103q0 -98 137 -98zM524 1004v-3q-131 0 -205 74q-73 73 -73 195q0 20 20 20h92q21 0 21 -20q0 -62 41 -103t104 -41q64 0 105 41t41 103 q0 20 20 20h92q21 0 21 -20q0 -119 -74 -193q-73 -73 -205 -73z" />
<glyph unicode="&#x104;" horiz-adv-x="1339" d="M1124 27l-110 227h-682l-113 -227q-10 -20 -16 -23q-8 -4 -27 -4h-133q-18 0 -18 14q0 2 10 25l602 1190h74l602 -1190q10 -23 10 -25q0 -14 -18 -14h-134h-20q-6 0 -12 6t-15 21zM575 737l-163 -327h526l-164 327q-12 22 -39 84q-24 55 -39 99l-16 43h-12 q-47 -133 -93 -226zM1378 -324l-2 5q8 -36 8 -66q0 -20 -24 -29q-41 -14 -109 -14q-97 0 -155 49t-58 133q0 130 127 248h146q-129 -123 -129 -227q0 -82 100 -82h21q8 0 24 4t19 4q26 3 32 -25z" />
<glyph unicode="&#x105;" horiz-adv-x="1054" d="M762 96l-6 -6l-31 -24q-113 -91 -305 -91q-154 0 -236 70q-80 71 -80 184q0 106 84 172t265 66h309v33q0 101 -53 151q-52 49 -197 49q-107 0 -154 -30q-45 -29 -45 -99v-6q0 -18 -34 -18h-111q-9 0 -21 12t-12 23v6q0 124 92 198t287 74q226 0 326 -100 q102 -102 102 -277v-448q0 -11 -12 -23t-23 -12h-86q-18 0 -33 35zM420 129v2q95 0 190 31q92 30 152 78v90h-309q-170 0 -170 -103q0 -98 137 -98zM1004 -328l-3 4q9 -40 9 -65q0 -20 -25 -29q-41 -14 -108 -14q-98 0 -156 49q-57 48 -57 133q0 129 127 250h145 q-129 -126 -129 -229q0 -82 100 -82h21q8 0 24 4t19 4q27 3 33 -25z" />
<glyph unicode="&#x106;" horiz-adv-x="1431" d="M1298 758l-124 -6q-17 0 -23 6q-5 5 -8 28q-9 129 -115 215t-285 86q-202 0 -331 -129t-129 -350q0 -219 129 -348t331 -129q178 0 285 78q105 76 117 203q3 23 8 28q6 6 27 6h114q33 0 33 -16q0 -188 -160 -321q-155 -129 -426 -129q-281 0 -460 170q-181 172 -181 462 q0 289 183 463q181 172 460 172q276 0 431 -143t155 -326q0 -20 -31 -20zM915 1679l31 -26q23 -20 23 -47q0 -35 -35 -62l-244 -203q-13 -10 -31 -10h-65q-16 0 -16 15q0 9 12 24l207 283q33 45 69 45q27 0 49 -19z" />
<glyph unicode="&#x107;" horiz-adv-x="1099" d="M993 569l-4 -2q4 -28 4 -32q0 -15 -10 -25t-25 -10h-110q-28 0 -37 30l-8 29q-42 143 -246 143q-132 0 -205 -79t-73 -205q0 -132 81 -207q84 -78 222 -78q168 0 295 133q10 10 24 10q18 0 23 -8l59 -65q10 -10 10 -23q0 -15 -12 -30q-145 -173 -401 -173 q-211 0 -344 115q-136 118 -136 326q0 209 131 325q132 117 332 117q171 0 283 -69t147 -222zM748 1372l30 -26q23 -20 23 -48q0 -34 -35 -61l-244 -203q-13 -10 -30 -10h-66q-16 0 -16 14q0 10 12 25l207 283q33 45 69 45q28 0 50 -19z" />
<glyph unicode="&#x108;" horiz-adv-x="1431" d="M1298 758l-124 -6q-17 0 -23 6q-5 5 -8 28q-9 129 -115 215t-285 86q-202 0 -331 -129t-129 -350q0 -219 129 -348t331 -129q178 0 285 78q105 76 117 203q3 23 8 28q6 6 27 6h114q33 0 33 -16q0 -188 -160 -321q-155 -129 -426 -129q-281 0 -460 170q-181 172 -181 462 q0 289 183 463q181 172 460 172q276 0 431 -143t155 -326q0 -20 -31 -20zM702 1683l9 3q30 0 71 -41l240 -232q18 -18 18 -29q0 -16 -14 -24l-33 -21q-17 -10 -28 -10q-7 0 -43 25l-215 149l-215 -149q-36 -25 -43 -25q-12 0 -29 10l-33 21q-14 8 -14 22q0 11 18 29l240 231 q41 41 71 41z" />
<glyph unicode="&#x109;" horiz-adv-x="1099" d="M993 569l-4 -2q4 -28 4 -32q0 -15 -10 -25t-25 -10h-110q-28 0 -37 30l-8 29q-42 143 -246 143q-132 0 -205 -79t-73 -205q0 -132 81 -207q84 -78 222 -78q168 0 295 133q10 10 24 10q18 0 23 -8l59 -65q10 -10 10 -23q0 -15 -12 -30q-145 -173 -401 -173 q-211 0 -344 115q-136 118 -136 326q0 209 131 325q132 117 332 117q171 0 283 -69t147 -222zM571 1380l9 2q30 0 71 -41l240 -231q18 -18 18 -29q0 -16 -14 -24l-33 -21q-17 -10 -28 -10q-7 0 -43 25l-216 149l-215 -149q-36 -25 -43 -25q-11 0 -28 10l-33 21q-14 8 -14 22 q0 11 18 29l240 231q41 41 71 41z" />
<glyph unicode="&#x10a;" horiz-adv-x="1431" d="M1298 758l-124 -6q-17 0 -23 6q-5 5 -8 28q-9 129 -115 215t-285 86q-202 0 -331 -129t-129 -350q0 -219 129 -348t331 -129q178 0 285 78q105 76 117 203q3 23 8 28q6 6 27 6h114q33 0 33 -16q0 -188 -160 -321q-155 -129 -426 -129q-281 0 -460 170q-181 172 -181 462 q0 289 183 463q181 172 460 172q276 0 431 -143t155 -326q0 -20 -31 -20zM598 1440q0 44 31 80q28 32 78 32q49 0 77 -32q31 -36 31 -80t-31 -80q-29 -33 -77 -33q-49 0 -78 33q-31 36 -31 80z" />
<glyph unicode="&#x10b;" horiz-adv-x="1099" d="M993 569l-4 -2q4 -28 4 -32q0 -15 -10 -25t-25 -10h-110q-28 0 -37 30l-8 29q-42 143 -246 143q-132 0 -205 -79t-73 -205q0 -132 81 -207q84 -78 222 -78q168 0 295 133q10 10 24 10q18 0 23 -8l59 -65q10 -10 10 -23q0 -15 -12 -30q-145 -173 -401 -173 q-211 0 -344 115q-136 118 -136 326q0 209 131 325q132 117 332 117q171 0 283 -69t147 -222zM459 1118q0 49 33 78q36 31 79 31q44 0 80 -31q33 -29 33 -78t-33 -78q-35 -30 -80 -30t-79 30q-33 29 -33 78z" />
<glyph unicode="&#x10c;" horiz-adv-x="1431" d="M1298 758l-124 -6q-17 0 -23 6q-5 5 -8 28q-9 129 -115 215t-285 86q-202 0 -331 -129t-129 -350q0 -219 129 -348t331 -129q178 0 285 78q105 76 117 203q3 23 8 28q6 6 27 6h114q33 0 33 -16q0 -188 -160 -321q-155 -129 -426 -129q-281 0 -460 170q-181 172 -181 462 q0 289 183 463q181 172 460 172q276 0 431 -143t155 -326q0 -20 -31 -20zM715 1329l-8 -2q-31 0 -72 41l-240 231q-18 18 -18 29q0 17 14 25l33 20q17 10 29 10q9 0 43 -24l215 -150l215 150q34 24 43 24q11 0 28 -10l33 -20q14 -8 14 -23q0 -10 -18 -28l-240 -232 q-41 -41 -71 -41z" />
<glyph unicode="&#x10d;" horiz-adv-x="1099" d="M993 569l-4 -2q4 -28 4 -32q0 -15 -10 -25t-25 -10h-110q-28 0 -37 30l-8 29q-42 143 -246 143q-132 0 -205 -79t-73 -205q0 -132 81 -207q84 -78 222 -78q168 0 295 133q10 10 24 10q18 0 23 -8l59 -65q10 -10 10 -23q0 -15 -12 -30q-145 -173 -401 -173 q-211 0 -344 115q-136 118 -136 326q0 209 131 325q132 117 332 117q171 0 283 -69t147 -222zM543 1016l-8 -2q-31 0 -72 41l-240 231q-18 18 -18 29q0 16 14 24l33 21q17 10 29 10q9 0 43 -24l215 -150l215 150q34 24 43 24q11 0 28 -10l33 -21q14 -8 14 -22q0 -11 -18 -29 l-240 -231q-41 -41 -71 -41z" />
<glyph unicode="&#x10e;" horiz-adv-x="1472" d="M711 0h-508q-13 0 -19 6q-8 8 -8 19v1179q0 11 8 19t19 8h506q287 0 473 -168q188 -170 188 -449q0 -283 -174 -448q-175 -166 -485 -166zM709 1071l-349 -2v-917h355q237 0 356 122q121 124 121 338q0 213 -135 336t-348 123zM670 1331l-8 -2q-31 0 -72 41l-240 232 q-18 18 -18 28q0 17 14 25l33 20q18 11 29 11q7 0 43 -25l215 -150l215 150q36 25 43 25q10 0 28 -11l33 -20q14 -8 14 -23q0 -10 -18 -28l-240 -232q-41 -41 -71 -41z" />
<glyph unicode="&#x10f;" horiz-adv-x="1327" d="M793 96l-5 -2l-18 -18q-96 -96 -258 -96q-169 0 -289 114q-123 117 -123 326q0 195 119 317q120 123 307 123q160 0 240 -69l14 -13h11v539q0 10 12 22q13 13 22 13h111q9 0 22 -13t13 -22v-1282q0 -10 -13 -23q-12 -12 -20 -12h-84q-21 0 -35 33zM283 418v-2 q0 -130 71 -207q72 -78 178 -78q139 0 261 119v291q-34 75 -101 118t-149 43q-113 0 -187 -77q-73 -76 -73 -207zM1075 1264v2q0 46 31 77t78 31q58 0 94 -39q37 -40 37 -110q0 -200 -154 -295q-18 -12 -39 -12q-14 0 -24 16l-21 33q-8 13 -8 24q0 10 8 13q29 18 51 36 q20 17 37 45q19 32 19 66v4q-47 0 -78 31t-31 78z" />
<glyph unicode="&#x110;" horiz-adv-x="1472" d="M33 553v115h143v528q0 10 8 18q9 9 19 9h506q285 0 475 -166t190 -447q0 -293 -166 -452q-165 -158 -479 -158h-526q-13 0 -19 6q-8 8 -8 19v528h-143zM707 1065h-351v-397h332v-123h-332v-398h371q463 0 463 459q0 214 -137 336q-138 123 -346 123z" />
<glyph unicode="&#x111;" horiz-adv-x="1095" d="M485 1024v121h308v170q0 10 12 22q13 13 22 13h111q10 0 23 -13q12 -12 12 -22v-170h123v-123h-123v-989q0 -11 -12 -23q-10 -10 -21 -10h-84q-22 0 -35 31l-26 63h-4l-19 -18q-96 -96 -258 -96q-169 0 -289 114q-123 117 -123 326q0 195 119 317q120 123 307 123 q160 0 240 -69l14 -13h11v246h-308zM283 418v-2q0 -130 71 -207q72 -78 178 -78q139 0 261 119v291q-34 75 -101 118t-149 43q-113 0 -187 -77q-73 -76 -73 -207z" />
<glyph unicode="&#x112;" horiz-adv-x="1245" d="M1053 557l-697 -4v-401h779q7 0 18 -11q10 -10 10 -18v-98q0 -9 -10 -19q-8 -8 -18 -8h-934q-10 0 -19 6q-8 8 -8 19v1179q0 11 8 19t19 8h913q9 0 19 -10t10 -19v-98q0 -9 -10 -19t-19 -10h-758v-360h697q7 0 18 -11q10 -10 10 -18v-98q0 -9 -10 -19t-18 -10zM401 1372 v123h492v-123h-492z" />
<glyph unicode="&#x113;" horiz-adv-x="1105" d="M932 240l39 -43q14 -14 14 -33t-24 -43q-144 -141 -381 -141q-208 0 -342 114q-140 119 -140 324q0 188 127 315q125 125 338 125t326 -110q121 -117 112 -277l-6 -104h-710q12 -102 96 -168q82 -64 203 -64q169 0 276 98q21 21 39 21q19 0 33 -14zM563 702 q-110 0 -184 -51q-77 -53 -92 -149h530q-15 200 -254 200zM293 1067v123h491v-123h-491z" />
<glyph unicode="&#x114;" horiz-adv-x="1245" d="M1053 557l-697 -4v-401h779q7 0 18 -11q10 -10 10 -18v-98q0 -9 -10 -19q-8 -8 -18 -8h-934q-10 0 -19 6q-8 8 -8 19v1179q0 11 8 19t19 8h913q9 0 19 -10t10 -19v-98q0 -9 -10 -19t-19 -10h-758v-360h697q7 0 18 -11q10 -10 10 -18v-98q0 -9 -10 -19t-18 -10zM647 1331 v-2q-131 0 -205 74q-73 73 -73 194q0 21 20 21h92q21 0 21 -21q0 -61 41 -102t104 -41q64 0 105 41t41 102q0 21 20 21h92q21 0 21 -21q0 -118 -74 -192t-205 -74z" />
<glyph unicode="&#x115;" horiz-adv-x="1105" d="M932 240l39 -43q14 -14 14 -33t-24 -43q-144 -141 -381 -141q-208 0 -342 114q-140 119 -140 324q0 188 127 315q125 125 338 125t326 -110q121 -117 112 -277l-6 -104h-710q12 -102 96 -168q82 -64 203 -64q169 0 276 98q21 21 39 21q19 0 33 -14zM563 702 q-110 0 -184 -51q-77 -53 -92 -149h530q-15 200 -254 200zM575 997v-2q-130 0 -204 74t-74 195q0 20 20 20h93q20 0 20 -20q0 -62 41 -103t104 -41q64 0 105 41t41 103q0 20 20 20h93q20 0 20 -20q0 -119 -74 -193t-205 -74z" />
<glyph unicode="&#x116;" horiz-adv-x="1245" d="M1053 557l-697 -4v-401h779q7 0 18 -11q10 -10 10 -18v-98q0 -9 -10 -19q-8 -8 -18 -8h-934q-10 0 -19 6q-8 8 -8 19v1179q0 11 8 19t19 8h913q9 0 19 -10t10 -19v-98q0 -9 -10 -19t-19 -10h-758v-360h697q7 0 18 -11q10 -10 10 -18v-98q0 -9 -10 -19t-18 -10zM537 1442 q0 48 32 80t80 32t80 -32q33 -33 33 -80t-33 -80t-80 -33t-80 33q-32 32 -32 80z" />
<glyph unicode="&#x117;" horiz-adv-x="1105" d="M932 240l39 -43q14 -14 14 -33t-24 -43q-144 -141 -381 -141q-208 0 -342 114q-140 119 -140 324q0 188 127 315q125 125 338 125t326 -110q121 -117 112 -277l-6 -104h-710q12 -102 96 -168q82 -64 203 -64q169 0 276 98q21 21 39 21q19 0 33 -14zM563 702 q-110 0 -184 -51q-77 -53 -92 -149h530q-15 200 -254 200zM471 1108q0 47 33 80t80 33t80 -33q32 -32 32 -80t-32 -80q-33 -33 -80 -33t-80 33t-33 80z" />
<glyph unicode="&#x118;" horiz-adv-x="1245" d="M1053 557l-697 -4v-401h779q7 0 18 -11q10 -10 10 -18v-98q0 -9 -10 -19q-8 -8 -18 -8h-934q-10 0 -19 6q-8 8 -8 19v1179q0 11 8 19t19 8h913q9 0 19 -10t10 -19v-98q0 -9 -10 -19t-19 -10h-758v-360h697q7 0 18 -11q10 -10 10 -18v-98q0 -9 -10 -19t-18 -10zM1182 -328 l-2 4q8 -36 8 -65q0 -20 -25 -29q-41 -14 -108 -14q-98 0 -156 49q-57 48 -57 133q0 129 127 250h145q-129 -126 -129 -229q0 -82 100 -82h21q8 0 24 4t19 4q27 3 33 -25z" />
<glyph unicode="&#x119;" horiz-adv-x="1105" d="M932 240l39 -43q14 -14 14 -33t-24 -43q-144 -141 -381 -141q-208 0 -342 114q-140 119 -140 324q0 188 127 315q125 125 338 125t326 -110q121 -117 112 -277l-6 -104h-710q12 -102 96 -168q82 -64 203 -64q169 0 276 98q21 21 39 21q19 0 33 -14zM563 702 q-110 0 -184 -51q-77 -53 -92 -149h530q-15 200 -254 200zM809 -326l-2 4q8 -36 8 -65q0 -20 -24 -29q-41 -14 -109 -14q-98 0 -156 49q-57 48 -57 133q0 130 127 248h145q-129 -123 -129 -227q0 -82 101 -82h20q9 0 25 4t18 4q27 3 33 -25z" />
<glyph unicode="&#x11a;" horiz-adv-x="1245" d="M1053 557l-697 -4v-401h779q7 0 18 -11q10 -10 10 -18v-98q0 -9 -10 -19q-8 -8 -18 -8h-934q-10 0 -19 6q-8 8 -8 19v1179q0 11 8 19t19 8h913q9 0 19 -10t10 -19v-98q0 -9 -10 -19t-19 -10h-758v-360h697q7 0 18 -11q10 -10 10 -18v-98q0 -9 -10 -19t-18 -10zM653 1300 l-8 -2q-31 0 -72 41l-239 232q-19 19 -19 28q0 16 15 25l32 21q17 10 29 10q7 0 43 -25l215 -149l215 149q36 25 43 25q12 0 29 -10l33 -21q14 -8 14 -22q0 -11 -18 -29l-240 -232q-41 -41 -72 -41z" />
<glyph unicode="&#x11b;" horiz-adv-x="1105" d="M932 240l39 -43q14 -14 14 -33t-24 -43q-144 -141 -381 -141q-208 0 -342 114q-140 119 -140 324q0 188 127 315q125 125 338 125t326 -110q121 -117 112 -277l-6 -104h-710q12 -102 96 -168q82 -64 203 -64q169 0 276 98q21 21 39 21q19 0 33 -14zM563 702 q-110 0 -184 -51q-77 -53 -92 -149h530q-15 200 -254 200zM571 1016l-8 -2q-30 0 -71 41l-240 231q-19 19 -19 29q0 15 15 24l33 21q17 10 28 10q9 0 43 -24l215 -150l215 150q34 24 43 24q12 0 29 -10l33 -21q14 -8 14 -22q0 -11 -18 -29l-240 -231q-41 -41 -72 -41z" />
<glyph unicode="&#x11c;" horiz-adv-x="1472" d="M1370 606v-71q0 -243 -160 -400q-156 -153 -462 -153q-282 0 -461 170q-181 172 -181 462q0 289 183 463q181 172 461 172q281 0 428 -141t153 -313q0 -19 -28 -19h-129q-22 0 -25 19q-15 122 -113 209q-98 88 -291 88q-202 0 -331 -129t-129 -351q0 -219 129 -348 t331 -129q207 0 320 94q115 95 115 222h-525q-8 0 -18 10t-10 18v99q0 8 10 18t18 10h715zM729 1692l8 2q31 0 72 -41l240 -232q18 -18 18 -28q0 -17 -14 -25l-33 -20q-18 -11 -29 -11q-7 0 -43 25l-215 149l-215 -149q-36 -25 -43 -25q-11 0 -29 11l-32 20q-15 9 -15 23 q0 9 19 28l239 232q41 41 72 41z" />
<glyph unicode="&#x11d;" horiz-adv-x="985" d="M131 532h-2q0 143 94 234q95 92 260 92q156 0 254 -88h4l4 6q55 82 183 82q35 0 35 -20v-138q0 -8 -9 -14t-14 -6h-12h-23q-51 0 -86 -35q21 -61 21 -117q0 -141 -95 -233t-260 -92q-108 0 -182 39q-41 -47 -41 -92q0 -82 117 -82h223q162 0 252 -78q90 -81 90 -197 q0 -133 -104 -227q-107 -96 -316 -96h-8q-182 0 -295 84q-110 82 -110 200q0 111 92 203v8q-101 55 -101 185q0 101 91 186q-62 83 -62 196zM377 -80l-12 -2q-76 -52 -76 -141q0 -65 59 -109q58 -43 154 -43h22q116 0 178 47t62 115q0 53 -39 92q-41 41 -125 41h-223z M289 530q0 -74 51 -122q53 -50 143 -50q91 0 144 50q51 48 51 122q0 75 -51 123q-52 49 -144 49q-91 0 -143 -49q-51 -48 -51 -123zM508 1380l8 2q31 0 72 -41l239 -231q19 -19 19 -29q0 -15 -15 -24l-32 -21q-17 -10 -29 -10q-7 0 -43 25l-215 149l-215 -149 q-36 -25 -43 -25q-12 0 -29 10l-32 21q-15 9 -15 22q0 10 19 29l239 231q41 41 72 41z" />
<glyph unicode="&#x11e;" horiz-adv-x="1472" d="M1370 606v-71q0 -243 -160 -400q-156 -153 -462 -153q-282 0 -461 170q-181 172 -181 462q0 289 183 463q181 172 461 172q281 0 428 -141t153 -313q0 -19 -28 -19h-129q-22 0 -25 19q-15 122 -113 209q-98 88 -291 88q-202 0 -331 -129t-129 -351q0 -219 129 -348 t331 -129q207 0 320 94q115 95 115 222h-525q-8 0 -18 10t-10 18v99q0 8 10 18t18 10h715zM735 1337v-2q-131 0 -205 74q-73 73 -73 195q0 20 20 20h92q21 0 21 -20q0 -62 41 -103t104 -41q64 0 105 41t41 103q0 20 20 20h92q21 0 21 -20q0 -119 -74 -193t-205 -74z" />
<glyph unicode="&#x11f;" horiz-adv-x="985" d="M131 532h-2q0 143 94 234q95 92 260 92q156 0 254 -88h4l4 6q55 82 183 82q35 0 35 -20v-138q0 -8 -9 -14t-14 -6h-12h-23q-51 0 -86 -35q21 -61 21 -117q0 -141 -95 -233t-260 -92q-108 0 -182 39q-41 -47 -41 -92q0 -82 117 -82h223q162 0 252 -78q90 -81 90 -197 q0 -133 -104 -227q-107 -96 -316 -96h-8q-182 0 -295 84q-110 82 -110 200q0 111 92 203v8q-101 55 -101 185q0 101 91 186q-62 83 -62 196zM377 -80l-12 -2q-76 -52 -76 -141q0 -65 59 -109q58 -43 154 -43h22q116 0 178 47t62 115q0 53 -39 92q-41 41 -125 41h-223z M289 530q0 -74 51 -122q53 -50 143 -50q91 0 144 50q51 48 51 122q0 75 -51 123q-52 49 -144 49q-91 0 -143 -49q-51 -48 -51 -123zM502 1006v-2q-132 0 -205 73q-74 74 -74 195q0 20 21 20h92q20 0 20 -20q0 -62 41 -103t105 -41q63 0 104 41t41 103q0 20 21 20h92 q20 0 20 -20q0 -120 -73 -193t-205 -73z" />
<glyph unicode="&#x120;" horiz-adv-x="1472" d="M1370 606v-71q0 -243 -160 -400q-156 -153 -462 -153q-282 0 -461 170q-181 172 -181 462q0 289 183 463q181 172 461 172q281 0 428 -141t153 -313q0 -19 -28 -19h-129q-22 0 -25 19q-15 122 -113 209q-98 88 -291 88q-202 0 -331 -129t-129 -351q0 -219 129 -348 t331 -129q207 0 320 94q115 95 115 222h-525q-8 0 -18 10t-10 18v99q0 8 10 18t18 10h715zM625 1448q0 46 30 80q29 33 78 33t78 -33q31 -36 31 -80t-31 -80q-29 -33 -78 -33t-78 33q-30 34 -30 80z" />
<glyph unicode="&#x121;" horiz-adv-x="985" d="M131 532h-2q0 143 94 234q95 92 260 92q156 0 254 -88h4l4 6q55 82 183 82q35 0 35 -20v-138q0 -8 -9 -14t-14 -6h-12h-23q-51 0 -86 -35q21 -61 21 -117q0 -141 -95 -233t-260 -92q-108 0 -182 39q-41 -47 -41 -92q0 -82 117 -82h223q162 0 252 -78q90 -81 90 -197 q0 -133 -104 -227q-107 -96 -316 -96h-8q-182 0 -295 84q-110 82 -110 200q0 111 92 203v8q-101 55 -101 185q0 101 91 186q-62 83 -62 196zM377 -80l-12 -2q-76 -52 -76 -141q0 -65 59 -109q58 -43 154 -43h22q116 0 178 47t62 115q0 53 -39 92q-41 41 -125 41h-223z M289 530q0 -74 51 -122q53 -50 143 -50q91 0 144 50q51 48 51 122q0 75 -51 123q-52 49 -144 49q-91 0 -143 -49q-51 -48 -51 -123zM383 1110q0 49 33 78q36 31 80 31q43 0 79 -31q33 -29 33 -78t-33 -78q-36 -31 -79 -31q-44 0 -80 31q-33 29 -33 78z" />
<glyph unicode="&#x122;" horiz-adv-x="1472" d="M1370 606v-71q0 -243 -160 -400q-156 -153 -462 -153q-282 0 -461 170q-181 172 -181 462q0 289 183 463q181 172 461 172q281 0 428 -141t153 -313q0 -19 -28 -19h-129q-22 0 -25 19q-15 122 -113 209q-98 88 -291 88q-202 0 -331 -129t-129 -351q0 -219 129 -348 t331 -129q207 0 320 94q115 95 115 222h-525q-8 0 -18 10t-10 18v99q0 8 10 18t18 10h715zM627 -213l4 -4q0 47 33 80t79 33q57 0 95 -41q36 -39 36 -121q0 -229 -184 -287q-21 -8 -41 -8q-13 0 -16 10l-21 53q-3 6 0 15t6 12q65 24 93 55t28 86v4q-47 0 -80 33 q-32 32 -32 80z" />
<glyph unicode="&#x123;" horiz-adv-x="985" d="M131 532h-2q0 143 94 234q95 92 260 92q156 0 254 -88h4l4 6q55 82 183 82q35 0 35 -20v-138q0 -8 -9 -14t-14 -6h-12h-23q-51 0 -86 -35q21 -61 21 -117q0 -141 -95 -233t-260 -92q-108 0 -182 39q-41 -47 -41 -92q0 -82 117 -82h223q162 0 252 -78q90 -81 90 -197 q0 -133 -104 -227q-107 -96 -316 -96h-8q-182 0 -295 84q-110 82 -110 200q0 111 92 203v8q-101 55 -101 185q0 101 91 186q-62 83 -62 196zM377 -80l-12 -2q-76 -52 -76 -141q0 -65 59 -109q58 -43 154 -43h22q116 0 178 47t62 115q0 53 -39 92q-41 41 -125 41h-223z M289 530q0 -74 51 -122q53 -50 143 -50q91 0 144 50q51 48 51 122q0 75 -51 123q-52 49 -144 49q-91 0 -143 -49q-51 -48 -51 -123zM610 1122v-6q0 -48 -30 -78t-78 -30q-56 0 -94 41q-37 40 -37 110q0 201 153 295q18 12 39 12q15 0 25 -16l20 -33q8 -13 8 -24 q0 -10 -8 -13q-24 -15 -51 -37q-20 -17 -37 -45q-18 -30 -18 -63v-4q47 0 78 -31q30 -30 30 -78z" />
<glyph unicode="&#x124;" horiz-adv-x="1560" d="M1384 1204v-1179q0 -11 -8 -19q-6 -6 -18 -6h-131q-13 0 -19 6q-8 8 -8 19v475h-848v-475q0 -11 -8 -19q-6 -6 -18 -6h-131q-13 0 -19 6q-8 8 -8 19v1179q0 11 8 19t19 8h131q10 0 18 -8t8 -19v-549h848v549q0 11 8 19t19 8h131q10 0 18 -8t8 -19zM752 1690l8 2 q30 0 71 -41l240 -232q19 -19 19 -28q0 -16 -15 -25l-33 -20q-18 -11 -28 -11q-7 0 -43 25l-215 149l-215 -149q-36 -25 -43 -25q-11 0 -29 11l-33 20q-14 8 -14 23q0 10 18 28l240 232q41 41 72 41z" />
<glyph unicode="&#x125;" d="M303 1317l-4 -596h8l8 10q41 53 117 90q75 37 166 37q348 0 348 -328v-497q0 -11 -12 -23q-10 -10 -21 -10h-110q-11 0 -21 10q-12 12 -12 23v497q0 80 -47 127q-48 48 -129 48q-103 0 -182 -54t-109 -139v-477q0 -11 -12 -23t-23 -12h-110q-11 0 -23 12t-12 23v1282 q0 10 12 22q13 13 23 13h110q10 0 23 -13q12 -12 12 -22zM209 1686l8 2q31 0 72 -41l239 -232q19 -19 19 -29q0 -15 -15 -24l-32 -21q-17 -10 -29 -10q-7 0 -43 25l-215 149l-213 -149q-36 -25 -43 -25q-12 0 -29 10l-32 21q-15 9 -15 22q0 10 19 29l237 232q41 41 72 41z " />
<glyph unicode="&#x12a;" horiz-adv-x="532" d="M356 1204v-1179q0 -11 -8 -19q-6 -6 -18 -6h-131q-13 0 -19 6q-8 8 -8 19v1179q0 11 8 19t19 8h131q10 0 18 -8t8 -19zM20 1376v123h492v-123h-492z" />
<glyph unicode="&#x12b;" horiz-adv-x="425" d="M303 805v-770q0 -11 -12 -23t-23 -12h-110q-11 0 -23 12t-12 23v770q0 10 12 22q13 13 23 13h110q10 0 23 -13q12 -12 12 -22zM-20 1069v123h489v-123h-489z" />
<glyph unicode="&#x12e;" horiz-adv-x="532" d="M408 -324l-2 5q8 -36 8 -66q0 -20 -25 -29q-41 -14 -108 -14q-98 0 -156 49q-57 48 -57 133q0 130 127 248h145q-129 -123 -129 -227q0 -82 100 -82h21q8 0 24 4t19 4q27 3 33 -25zM354 1208v-1179q0 -11 -8 -19t-18 -8h-131q-11 0 -19 8t-8 19v1179q0 11 8 19t19 8h131 q10 0 18 -8t8 -19z" />
<glyph unicode="&#x12f;" horiz-adv-x="425" d="M303 805v-770q0 -11 -12 -23t-23 -12h-110q-11 0 -23 12t-12 23v770q0 10 12 22q13 13 23 13h110q10 0 23 -13q12 -12 12 -22zM102 1139q0 47 33 80q32 32 80 32t80 -32q33 -33 33 -80t-33 -80t-80 -33t-80 33t-33 80zM354 -324l-2 5q8 -36 8 -66q0 -20 -24 -29 q-41 -14 -109 -14q-97 0 -155 49t-58 133q0 130 127 248h146q-129 -123 -129 -227q0 -82 100 -82h21q8 0 24 4t19 4q26 3 32 -25z" />
<glyph unicode="&#x130;" horiz-adv-x="532" d="M356 1204v-1179q0 -11 -8 -19q-6 -6 -18 -6h-131q-13 0 -19 6q-8 8 -8 19v1179q0 11 8 19t19 8h131q10 0 18 -8t8 -19zM156 1446q0 48 32 80q33 33 80 33t80 -33t33 -80t-33 -80t-80 -33t-80 33q-32 32 -32 80z" />
<glyph unicode="&#x131;" horiz-adv-x="425" d="M303 805v-770q0 -11 -12 -23t-23 -12h-110q-11 0 -23 12t-12 23v770q0 10 12 22q13 13 23 13h110q10 0 23 -13q12 -12 12 -22z" />
<glyph unicode="&#x134;" horiz-adv-x="1107" d="M201 365l8 -39q0 -81 70 -136t190 -55q156 0 233 80q78 81 78 221v766q0 10 6 19q5 8 17 8h131q11 0 16 -8q6 -9 6 -19v-766q0 -219 -125 -338q-124 -118 -368 -118q-213 0 -326 96q-117 99 -117 235v54q0 7 11 18q10 10 18 10h123q8 0 18 -10q11 -11 11 -18zM846 1688 l8 2q31 0 72 -41l239 -232q19 -19 19 -28q0 -16 -15 -25l-32 -21q-17 -10 -29 -10q-7 0 -43 25l-215 149l-215 -149q-36 -25 -43 -25q-12 0 -29 10l-33 21q-14 8 -14 22q0 10 19 29l239 232q41 41 72 41z" />
<glyph unicode="&#x135;" horiz-adv-x="448" d="M326 805l-4 -1018q0 -143 -80 -229t-232 -86q-139 0 -227 88q-8 8 -8 18q0 8 6 14l67 80q18 23 39 2q53 -47 115 -47q64 0 104 43q39 42 39 115v1020q0 9 13 22t22 13h111q9 0 22 -13t13 -22zM225 1384l8 2q32 0 72 -40l240 -232q18 -18 18 -29q0 -16 -14 -24l-33 -21 q-17 -10 -29 -10q-7 0 -43 25l-215 149l-215 -149q-31 -25 -41 -25q-11 0 -28 10l-33 21q-14 8 -14 22q0 11 18 29l238 231q41 41 71 41z" />
<glyph unicode="&#x136;" horiz-adv-x="1357" d="M356 1204l-4 -618h4q35 41 62 65l643 559q22 19 49 19h180q13 0 13 -10q0 -7 -15 -19l-600 -522l637 -645q10 -10 10 -19q0 -14 -18 -14h-174q-27 0 -43 16l-541 547l-203 -178v-360q0 -11 -8 -19q-6 -6 -18 -6h-131q-13 0 -19 6q-8 8 -8 19v1179q0 11 8 19t19 8h131 q10 0 18 -8t8 -19zM559 -215l4 -4q0 44 31 80q29 33 78 33q56 0 94 -41q37 -40 37 -121q0 -228 -185 -287q-21 -8 -40 -8q-10 0 -17 10l-20 53q-3 6 0 15t6 12q64 24 92 55q29 32 29 86v4q-49 0 -78 33q-31 36 -31 80z" />
<glyph unicode="&#x137;" horiz-adv-x="1021" d="M303 1317l2 -907h6l43 53l365 342q35 35 74 35h145q23 0 23 -19q0 -11 -11 -22l-346 -322l377 -438q10 -13 10 -21q0 -18 -30 -18h-119q-55 0 -92 43l-273 315l-174 -163v-160q0 -11 -12 -23t-23 -12h-110q-11 0 -23 12t-12 23v1282q0 10 12 22q13 13 23 13h110 q10 0 23 -13q12 -12 12 -22zM383 -215l4 -4q0 47 33 80t80 33q56 0 94 -41q37 -40 37 -121q0 -228 -185 -287q-21 -8 -40 -8q-14 0 -17 10l-20 53q-3 6 0 15t6 12q64 24 92 55q29 32 29 86v4q-47 0 -80 33t-33 80z" />
<glyph unicode="&#x139;" horiz-adv-x="1101" d="M356 1204l-2 -1050h676q8 0 19 -11q10 -10 10 -18v-98q0 -9 -10 -19q-8 -8 -19 -8h-831q-13 0 -19 6q-8 8 -8 19v1179q0 11 8 19t19 8h131q10 0 18 -8t8 -19zM530 1681l31 -26q23 -20 23 -47q0 -35 -35 -62l-244 -203q-13 -10 -31 -10h-65q-16 0 -16 15q0 9 12 24 l207 283q33 45 69 45q27 0 49 -19z" />
<glyph unicode="&#x13a;" horiz-adv-x="425" d="M469 1784l31 -27q22 -19 22 -47q0 -34 -35 -61l-243 -203q-13 -10 -31 -10h-66q-16 0 -16 14q0 10 12 25l207 282q33 45 70 45q28 0 49 -18zM305 1317v-1282q0 -11 -12 -23t-23 -12h-110q-11 0 -23 12t-12 23v1282q0 10 12 22q13 13 23 13h110q10 0 23 -13q12 -12 12 -22 z" />
<glyph unicode="&#x13b;" horiz-adv-x="1101" d="M356 1204l-2 -1050h676q8 0 19 -11q10 -10 10 -18v-98q0 -9 -10 -19q-8 -8 -19 -8h-831q-13 0 -19 6q-8 8 -8 19v1179q0 11 8 19t19 8h131q10 0 18 -8t8 -19zM498 -195l-2 2q0 41 30 68q32 29 72 29q52 0 86 -37q33 -36 33 -109q0 -206 -166 -258q-19 -8 -37 -8 q-9 0 -12 10l-19 47q-10 17 6 23q59 21 84 49t25 78v4q-39 0 -70 31q-30 30 -30 71z" />
<glyph unicode="&#x13c;" horiz-adv-x="425" d="M106 -215l5 -4q0 45 30 80q29 33 78 33q56 0 94 -41q37 -40 37 -121q0 -229 -184 -287q-21 -8 -41 -8q-9 0 -16 10l-21 53q-3 6 0 15t6 12q64 24 92 55q29 32 29 86v4q-49 0 -78 33q-31 36 -31 80zM309 1313v-1282q0 -11 -12 -23q-10 -10 -23 -10h-110q-13 0 -23 10 q-12 12 -12 23v1282q0 10 12 22q13 13 23 13h110q10 0 23 -13q12 -12 12 -22z" />
<glyph unicode="&#x13d;" horiz-adv-x="1101" d="M356 1204l-2 -1050h676q8 0 19 -11q10 -10 10 -18v-98q0 -9 -10 -19q-8 -8 -19 -8h-831q-13 0 -19 6q-8 8 -8 19v1179q0 11 8 19t19 8h131q10 0 18 -8t8 -19zM518 1159l-4 2q0 37 25 62q24 24 61 24q46 0 76 -30q31 -31 31 -89q0 -160 -123 -233q-17 -10 -31 -10 q-9 0 -18 12l-17 27q-6 12 -6 18q0 10 6 10q86 56 86 117v4q-36 0 -61 25t-25 61z" />
<glyph unicode="&#x13e;" horiz-adv-x="647" d="M303 1317v-1282q0 -11 -12 -23t-23 -12h-110q-11 0 -23 12t-12 23v1282q0 10 12 22q13 13 23 13h110q10 0 23 -13q12 -12 12 -22zM395 1268v2q0 47 31 78q30 30 78 30q58 0 94 -39q37 -40 37 -110q0 -200 -154 -295q-18 -12 -39 -12q-14 0 -24 16l-21 33q-8 13 -8 24 q0 10 8 13q33 20 52 36q17 14 36 46t19 65v4q-47 0 -78 31t-31 78z" />
<glyph unicode="&#x13f;" horiz-adv-x="1101" d="M356 1204l-2 -1050h676q8 0 19 -11q10 -10 10 -18v-98q0 -9 -10 -19q-8 -8 -19 -8h-831q-13 0 -19 6q-8 8 -8 19v1179q0 11 8 19t19 8h131q10 0 18 -8t8 -19zM508 600l-4 -4q0 41 31 72q30 30 71 30q42 0 72 -30q31 -31 31 -70t-31 -70q-30 -30 -70 -30q-39 0 -69 30 q-31 31 -31 72z" />
<glyph unicode="&#x140;" horiz-adv-x="684" d="M303 1317v-1282q0 -11 -12 -23t-23 -12h-110q-11 0 -23 12t-12 23v1282q0 10 12 22q13 13 23 13h110q10 0 23 -13q12 -12 12 -22zM442 627q0 47 33 80q32 32 80 32t80 -32q33 -33 33 -80t-33 -80t-80 -33t-80 33t-33 80z" />
<glyph unicode="&#x141;" horiz-adv-x="1081" d="M53 377l-59 104l182 107v614q0 11 8 19t19 8h131q10 0 18 -8t8 -19v-438l-4 -76l4 -2q21 15 60 39l166 96l61 -106l-287 -166v-395h676q8 0 19 -11q10 -10 10 -18v-98q0 -9 -10 -19q-8 -8 -19 -8h-831q-13 0 -19 6q-8 8 -8 19v358l4 70l-2 2q-38 -26 -49 -33z" />
<glyph unicode="&#x142;" horiz-adv-x="425" d="M0 332l-59 106l182 107v772q0 10 12 22q13 13 23 13h110q10 0 23 -13q12 -12 12 -22v-629l-4 -41l4 -2q31 24 45 31l78 45l61 -107l-184 -106v-473q0 -11 -12 -23t-23 -12h-110q-11 0 -23 12t-12 23v330l2 38l-2 3l-35 -23z" />
<glyph unicode="&#x143;" horiz-adv-x="1560" d="M1264 0l-824 842q-15 15 -39 47q-13 17 -26 39l-10 12h-7v-917q0 -11 -8 -19q-9 -6 -18 -6h-131q-10 0 -19 6q-8 8 -8 19v1179q0 11 8 19t19 8h98l805 -823q22 -22 47 -54q23 -29 31 -43l12 -16h8v913q0 11 8 19t19 8h131q10 0 18 -8t8 -19v-1179q0 -11 -8 -19t-18 -8 h-96zM987 1683l29 -26q22 -22 22 -47q0 -35 -34 -62l-244 -202q-15 -11 -31 -11h-65q-17 0 -17 15q0 9 12 24l207 283q33 45 70 45q29 0 51 -19z" />
<glyph unicode="&#x144;" d="M772 532l-4 -4q0 80 -47 127t-129 47q-105 0 -182 -53q-79 -54 -109 -139v-477q0 -11 -12 -23q-10 -10 -23 -10h-110q-13 0 -23 10q-12 12 -12 23v770q0 10 12 22q13 13 23 13h84q20 0 32 -35l29 -80h8l8 10q41 53 117 90q75 37 166 37q348 0 348 -328v-497 q0 -11 -12 -23t-21 -12h-110q-9 0 -21 12t-12 23v497zM711 1370l30 -27q23 -20 23 -47q0 -34 -35 -61l-244 -203q-13 -10 -30 -10h-66q-16 0 -16 14q0 10 12 25l207 282q34 46 70 46q27 0 49 -19z" />
<glyph unicode="&#x145;" horiz-adv-x="1560" d="M1264 0l-824 842q-15 15 -39 47q-13 17 -26 39l-10 12h-7v-917q0 -11 -8 -19q-9 -6 -18 -6h-131q-10 0 -19 6q-8 8 -8 19v1179q0 11 8 19t19 8h98l805 -823q22 -22 47 -54q23 -29 31 -43l12 -16h8v913q0 11 8 19t19 8h131q10 0 18 -8t8 -19v-1179q0 -11 -8 -19t-18 -8 h-96zM684 -197h-4q0 41 31 72t71 31q52 0 86 -37q33 -36 33 -109q0 -206 -166 -258q-19 -8 -37 -8q-9 0 -12 10l-18 47q-10 17 6 23q110 37 110 129v4q-37 0 -69 29q-31 28 -31 67z" />
<glyph unicode="&#x146;" d="M772 532l-4 -4q0 80 -47 127t-129 47q-105 0 -182 -53q-79 -54 -109 -139v-477q0 -11 -12 -23q-10 -10 -23 -10h-110q-13 0 -23 10q-12 12 -12 23v770q0 10 12 22q13 13 23 13h84q20 0 32 -35l29 -80h8l8 10q41 53 117 90q75 37 166 37q348 0 348 -328v-497 q0 -11 -12 -23t-21 -12h-110q-9 0 -21 12t-12 23v497zM440 -219l4 -4q0 44 31 80q28 32 78 32q56 0 94 -41q37 -40 37 -120q0 -229 -184 -287q-21 -8 -41 -8q-10 0 -17 10l-20 53q-3 6 0 15t6 12q64 24 92 55q29 32 29 86v4q-49 0 -78 33q-31 36 -31 80z" />
<glyph unicode="&#x147;" horiz-adv-x="1560" d="M1264 0l-824 842q-15 15 -39 47q-13 17 -26 39l-10 12h-7v-917q0 -11 -8 -19q-9 -6 -18 -6h-131q-10 0 -19 6q-8 8 -8 19v1179q0 11 8 19t19 8h98l805 -823q22 -22 47 -54q23 -29 31 -43l12 -16h8v913q0 11 8 19t19 8h131q10 0 18 -8t8 -19v-1179q0 -11 -8 -19t-18 -8 h-96zM786 1333l-8 -2q-30 0 -71 41l-240 232q-18 18 -18 28q0 17 14 25l33 20q18 11 28 11q7 0 43 -25l215 -150l215 150q36 25 43 25q11 0 29 -11l33 -20q14 -8 14 -23q0 -10 -18 -28l-240 -232q-41 -41 -72 -41z" />
<glyph unicode="&#x148;" d="M772 532l-4 -4q0 80 -47 127t-129 47q-105 0 -182 -53q-79 -54 -109 -139v-477q0 -11 -12 -23q-10 -10 -23 -10h-110q-13 0 -23 10q-12 12 -12 23v770q0 10 12 22q13 13 23 13h84q20 0 32 -35l29 -80h8l8 10q41 53 117 90q75 37 166 37q348 0 348 -328v-497 q0 -11 -12 -23t-21 -12h-110q-9 0 -21 12t-12 23v497zM535 1014l-9 -2q-30 0 -71 41l-240 231q-18 18 -18 29q0 16 14 24l33 21q17 10 28 10q7 0 43 -25l215 -149l215 149q36 25 43 25q12 0 29 -10l33 -21q14 -8 14 -22q0 -11 -18 -29l-240 -231q-41 -41 -71 -41z" />
<glyph unicode="&#x14c;" horiz-adv-x="1531" d="M766 1249v4q285 0 475 -172q191 -173 191 -463q0 -289 -191 -462q-188 -170 -475 -170q-285 0 -473 170q-191 173 -191 460q0 288 191 461q190 172 473 172zM766 1098v4q-206 0 -344 -129q-139 -130 -139 -350q0 -218 139 -351q137 -131 344 -131q206 0 344 129 q139 130 139 348q0 223 -137 351q-138 129 -346 129zM520 1384v123h492v-123h-492z" />
<glyph unicode="&#x14d;" horiz-adv-x="1126" d="M563 860h4q201 0 330 -117t129 -325q0 -210 -131 -326q-130 -115 -332 -115t-332 115q-131 116 -131 326q0 209 131 325q132 117 332 117zM848 420l-4 -2q0 126 -76 205t-203 79t-203 -79q-75 -78 -75 -205q0 -132 75 -207q78 -78 205 -78q126 0 203 80q78 81 78 207z M317 1067v123h492v-123h-492z" />
<glyph unicode="&#x14e;" horiz-adv-x="1531" d="M766 1249v4q285 0 475 -172q191 -173 191 -463q0 -289 -191 -462q-188 -170 -475 -170q-285 0 -473 170q-191 173 -191 460q0 288 191 461q190 172 473 172zM766 1098v4q-206 0 -344 -129q-139 -130 -139 -350q0 -218 139 -351q137 -131 344 -131q206 0 344 129 q139 130 139 348q0 223 -137 351q-138 129 -346 129zM766 1343v-2q-131 0 -205 74t-74 195q0 20 21 20h92q21 0 21 -20q0 -62 41 -103t104 -41t104 41t41 103q0 20 21 20h92q20 0 20 -20q0 -120 -73 -193q-74 -74 -205 -74z" />
<glyph unicode="&#x14f;" horiz-adv-x="1126" d="M563 860h4q201 0 330 -117t129 -325q0 -210 -131 -326q-130 -115 -332 -115t-332 115q-131 116 -131 326q0 209 131 325q132 117 332 117zM848 420l-4 -2q0 126 -76 205t-203 79t-203 -79q-75 -78 -75 -205q0 -132 75 -207q78 -78 205 -78q126 0 203 80q78 81 78 207z M561 1006v-2q-132 0 -205 73t-73 195q0 20 20 20h92q21 0 21 -20q0 -62 41 -103t104 -41q64 0 105 41t41 103q0 20 20 20h92q21 0 21 -20q0 -119 -74 -193q-73 -73 -205 -73z" />
<glyph unicode="&#x150;" horiz-adv-x="1531" d="M766 1249v4q285 0 475 -172q191 -173 191 -463q0 -289 -191 -462q-188 -170 -475 -170q-285 0 -473 170q-191 173 -191 460q0 288 191 461q190 172 473 172zM766 1098v4q-206 0 -344 -129q-139 -130 -139 -350q0 -218 139 -351q137 -131 344 -131q206 0 344 129 q139 130 139 348q0 223 -137 351q-138 129 -346 129zM821 1696l21 -19q22 -22 22 -43q0 -33 -39 -69l-221 -209q-13 -10 -31 -10h-65q-16 0 -16 14q0 9 12 24l207 283q33 45 65 45q26 0 45 -16zM1163 1696l21 -19q22 -22 22 -43q0 -33 -39 -69l-221 -209q-13 -10 -31 -10 h-65q-16 0 -16 14q0 9 12 24l207 283q33 45 65 45q26 0 45 -16z" />
<glyph unicode="&#x151;" horiz-adv-x="1126" d="M563 860h4q201 0 330 -117t129 -325q0 -210 -131 -326q-130 -115 -332 -115t-332 115q-131 116 -131 326q0 209 131 325q132 117 332 117zM848 420l-4 -2q0 126 -76 205t-203 79t-203 -79q-75 -78 -75 -205q0 -132 75 -207q78 -78 205 -78q126 0 203 80q78 81 78 207z M575 1374l21 -18q22 -22 22 -43q0 -35 -38 -70l-222 -209q-13 -10 -30 -10h-66q-16 0 -16 14q0 10 12 25l207 283q33 45 65 45q25 0 45 -17zM918 1374l20 -18q23 -23 23 -43q0 -34 -39 -70l-222 -209q-13 -10 -30 -10h-66q-16 0 -16 14q0 10 12 25l207 283q33 45 65 45 q26 0 46 -17z" />
<glyph unicode="&#x152;" horiz-adv-x="2154" d="M766 1249l-2 6q88 0 178 -20h1077q9 0 19 -10t10 -19v-98q0 -8 -10 -18q-11 -11 -19 -11h-665l-119 8l-4 -8q161 -158 188 -362h539q8 0 18 -10q11 -11 11 -19v-98q0 -8 -11 -19q-10 -10 -18 -10h-535q-15 -229 -190 -401l4 -8q73 8 125 8h680q8 0 18 -10q11 -11 11 -19 v-98q0 -8 -11 -19q-10 -10 -18 -10h-1098q-94 -18 -178 -18q-285 0 -473 170q-191 173 -191 460q0 288 191 461q190 172 473 172zM764 1100v4q-206 0 -344 -129q-139 -130 -139 -350q0 -218 139 -351q137 -131 344 -131q206 0 344 129q139 130 139 349q0 222 -137 350 q-138 129 -346 129z" />
<glyph unicode="&#x153;" horiz-adv-x="1826" d="M1653 240l37 -47q14 -14 14 -33q0 -18 -25 -43q-145 -142 -381 -142q-252 0 -376 164h-4q-115 -164 -361 -164q-202 0 -332 115q-131 116 -131 326q0 209 131 325q132 117 332 117q244 0 363 -162h4q119 162 360 162q213 0 326 -110q121 -117 112 -277l-6 -104h-710 q12 -102 96 -168q82 -64 203 -64q169 0 276 98q21 21 39 21q19 0 33 -14zM838 414l-4 -2q0 125 -76 204q-77 80 -203 80t-203 -80q-76 -79 -76 -204q0 -131 76 -207q78 -78 205 -78q126 0 203 80q78 81 78 207zM1278 696q-110 0 -184 -51q-79 -54 -93 -149h531 q-15 200 -254 200z" />
<glyph unicode="&#x154;" horiz-adv-x="1327" d="M176 25v1177q0 11 8 19t19 8h524q226 0 363 -107q139 -109 139 -297q0 -144 -86 -239q-84 -93 -230 -131v-4q45 -42 78 -89l234 -323q14 -17 14 -27q0 -12 -16 -12h-168q-21 0 -29 14l-303 420h-363v-409q0 -11 -8 -19q-6 -6 -18 -6h-131q-13 0 -19 6q-8 8 -8 19z M721 1071l-365 -4v-494h365q142 0 233 66q90 66 90 182q0 121 -88 185q-93 68 -235 65zM827 1679l29 -26q23 -23 23 -47q0 -35 -35 -62l-244 -203q-13 -10 -31 -10h-65q-17 0 -17 15q0 8 13 24l207 283q33 45 69 45q29 0 51 -19z" />
<glyph unicode="&#x155;" horiz-adv-x="894" d="M303 723v-2l14 16q109 121 258 121q271 0 271 -295v-20q0 -9 -12 -21t-21 -12h-111q-8 0 -20 12t-12 23v8q0 74 -33 113t-92 39q-78 0 -146 -56q-70 -58 -96 -137v-477q0 -11 -12 -23t-23 -12h-110q-11 0 -23 12t-12 23v770q0 10 12 22q13 13 23 13h84q20 0 32 -35z M651 1372l29 -26q22 -22 22 -48q0 -34 -34 -61l-244 -203q-13 -10 -31 -10h-65q-17 0 -17 14q0 9 13 25l206 283q33 45 70 45q29 0 51 -19z" />
<glyph unicode="&#x156;" horiz-adv-x="1327" d="M176 25v1177q0 11 8 19t19 8h524q226 0 363 -107q139 -109 139 -297q0 -144 -86 -239q-84 -93 -230 -131v-4q45 -42 78 -89l234 -323q14 -17 14 -27q0 -12 -16 -12h-168q-21 0 -29 14l-303 420h-363v-409q0 -11 -8 -19q-6 -6 -18 -6h-131q-13 0 -19 6q-8 8 -8 19z M721 1071l-365 -4v-494h365q142 0 233 66q90 66 90 182q0 121 -88 185q-93 68 -235 65zM586 -199l-2 2q0 41 30 68q32 29 72 29q52 0 86 -37q33 -36 33 -109q0 -206 -166 -258q-19 -8 -37 -8q-9 0 -12 10l-19 47q-10 16 7 23q59 21 84 49q24 27 24 78v4q-39 0 -70 31 q-30 30 -30 71z" />
<glyph unicode="&#x157;" horiz-adv-x="894" d="M305 723v-2l14 16q109 121 259 121q270 0 270 -295v-20q0 -9 -12 -21t-21 -12h-110q-9 0 -21 12t-12 23v8q0 74 -33 113t-92 39q-78 0 -146 -56q-70 -58 -96 -137v-477q0 -11 -12 -23t-23 -12h-110q-11 0 -23 12t-12 23v770q0 10 12 22q13 13 23 13h84q20 0 32 -35z M88 -217l4 -4q0 47 33 80q32 32 80 32q56 0 94 -41q37 -40 37 -120q0 -229 -184 -287q-21 -8 -41 -8q-14 0 -17 10l-20 53q-3 6 0 15t6 12q64 24 92 55q29 32 29 86v4q-47 0 -80 33t-33 80z" />
<glyph unicode="&#x158;" horiz-adv-x="1327" d="M176 25v1177q0 11 8 19t19 8h524q226 0 363 -107q139 -109 139 -297q0 -144 -86 -239q-84 -93 -230 -131v-4q45 -42 78 -89l234 -323q14 -17 14 -27q0 -12 -16 -12h-168q-21 0 -29 14l-303 420h-363v-409q0 -11 -8 -19q-6 -6 -18 -6h-131q-13 0 -19 6q-8 8 -8 19z M721 1071l-365 -4v-494h365q142 0 233 66q90 66 90 182q0 121 -88 185q-93 68 -235 65zM668 1329l-9 -2q-30 0 -71 41l-240 231q-18 18 -18 29q0 17 14 25l33 20q17 10 29 10q8 0 43 -24l215 -150l215 150q35 24 43 24q11 0 28 -10l33 -20q14 -8 14 -23q0 -10 -18 -28 l-240 -232q-41 -41 -71 -41z" />
<glyph unicode="&#x159;" horiz-adv-x="894" d="M303 723v-2l14 16q109 121 258 121q271 0 271 -295v-20q0 -9 -12 -21t-21 -12h-111q-8 0 -20 12t-12 23v8q0 74 -33 113t-92 39q-78 0 -146 -56q-70 -58 -96 -137v-477q0 -11 -12 -23t-23 -12h-110q-11 0 -23 12t-12 23v770q0 10 12 22q13 13 23 13h84q20 0 32 -35z M436 1016l-8 -2q-31 0 -72 41l-239 231q-19 19 -19 29q0 15 15 24l32 21q17 10 29 10q8 0 43 -24l215 -150l215 150q35 24 43 24q12 0 29 -10l33 -21q14 -8 14 -22q0 -11 -18 -29l-240 -231q-41 -41 -72 -41z" />
<glyph unicode="&#x15a;" horiz-adv-x="1294" d="M127 414h121q28 0 28 -29q0 -250 386 -250q178 0 262 66t84 172q0 149 -209 164l-342 24q-359 24 -359 301q0 156 135 273q134 116 388 116q269 0 393 -106q125 -107 125 -279q0 -20 -31 -20h-121q-28 0 -31 35q-9 92 -88 153q-80 62 -245 62q-154 0 -248 -66 q-92 -65 -92 -166q0 -132 194 -147l336 -25q199 -15 289 -102t90 -217q0 -149 -131 -271q-129 -120 -393 -120q-275 0 -418 108q-148 112 -148 281v20q0 23 25 23zM827 1686l31 -27q23 -20 23 -47q0 -35 -35 -62l-244 -202q-15 -11 -31 -11h-65q-17 0 -17 15q0 8 13 24 l207 283q33 45 69 45q28 0 49 -18z" />
<glyph unicode="&#x15b;" horiz-adv-x="1003" d="M135 281l109 -2q32 0 32 -31q0 -115 244 -115q199 0 199 119q0 71 -144 86l-200 20q-152 15 -213 70q-62 56 -62 156q0 108 99 190q101 84 280 84q195 0 287 -74t92 -184q0 -25 -24 -25h-119q-33 0 -39 37q-15 88 -197 88q-106 0 -151 -36q-47 -38 -47 -82q0 -62 106 -74 l197 -21q185 -18 250 -75q67 -58 67 -160q0 -108 -92 -191q-90 -81 -287 -81q-212 0 -315 69q-105 71 -105 201q0 31 33 31zM678 1372l29 -26q22 -22 22 -48q0 -34 -35 -61l-243 -203q-13 -10 -31 -10h-66q-16 0 -16 14q0 10 12 25l207 283q33 45 70 45q29 0 51 -19z" />
<glyph unicode="&#x15c;" horiz-adv-x="1294" d="M127 414h121q28 0 28 -29q0 -250 386 -250q178 0 262 66t84 172q0 149 -209 164l-342 24q-359 24 -359 301q0 156 135 273q134 116 388 116q269 0 393 -106q125 -107 125 -279q0 -20 -31 -20h-121q-28 0 -31 35q-9 92 -88 153q-80 62 -245 62q-154 0 -248 -66 q-92 -65 -92 -166q0 -132 194 -147l336 -25q199 -15 289 -102t90 -217q0 -149 -131 -271q-129 -120 -393 -120q-275 0 -418 108q-148 112 -148 281v20q0 23 25 23zM635 1690l8 2q31 0 72 -41l239 -232q19 -19 19 -28q0 -16 -15 -25l-32 -20q-18 -11 -29 -11q-7 0 -43 25 l-215 149l-215 -149q-36 -25 -43 -25q-11 0 -29 11l-33 20q-14 8 -14 23q0 9 19 28l239 232q41 41 72 41z" />
<glyph unicode="&#x15d;" horiz-adv-x="1003" d="M135 281l109 -2q32 0 32 -31q0 -115 244 -115q199 0 199 119q0 71 -144 86l-200 20q-152 15 -213 70q-62 56 -62 156q0 108 99 190q101 84 280 84q195 0 287 -74t92 -184q0 -25 -24 -25h-119q-33 0 -39 37q-15 88 -197 88q-106 0 -151 -36q-47 -38 -47 -82q0 -62 106 -74 l197 -21q185 -18 250 -75q67 -58 67 -160q0 -108 -92 -191q-90 -81 -287 -81q-212 0 -315 69q-105 71 -105 201q0 31 33 31zM473 1380l8 2q31 0 72 -41l240 -231q18 -18 18 -29q0 -16 -14 -24l-33 -21q-17 -10 -29 -10q-7 0 -43 25l-215 149l-215 -149q-36 -25 -43 -25 q-12 0 -29 10l-32 21q-15 9 -15 22q0 10 19 29l239 231q41 41 72 41z" />
<glyph unicode="&#x15e;" horiz-adv-x="1294" d="M127 414h121q28 0 28 -29q0 -250 386 -250q178 0 262 66t84 172q0 149 -209 164l-342 24q-359 24 -359 301q0 156 135 273q134 116 388 116q269 0 393 -106q125 -107 125 -279q0 -20 -31 -20h-121q-28 0 -31 35q-9 92 -88 153q-80 62 -245 62q-154 0 -248 -66 q-92 -65 -92 -166q0 -132 194 -147l336 -25q199 -15 289 -102t90 -217q0 -149 -131 -271q-129 -120 -393 -120q-275 0 -418 108q-148 112 -148 281v20q0 23 25 23zM500 -377l14 49q3 19 31 13q83 -17 137 -17q98 0 98 58q0 27 -14 38q-16 13 -55 13h-131q-34 0 -31 35 l24 188h125l-8 -119h62q74 0 114 -43q41 -44 41 -112q0 -78 -57 -123q-59 -47 -168 -47q-63 0 -160 20q-26 6 -26 23q0 4 4 24z" />
<glyph unicode="&#x15f;" horiz-adv-x="1003" d="M135 281l109 -2q32 0 32 -31q0 -115 244 -115q199 0 199 119q0 71 -144 86l-200 20q-152 15 -213 70q-62 56 -62 156q0 108 99 190q101 84 280 84q195 0 287 -74t92 -184q0 -25 -24 -25h-119q-33 0 -39 37q-15 88 -197 88q-106 0 -151 -36q-47 -38 -47 -82q0 -62 106 -74 l197 -21q185 -18 250 -75q67 -58 67 -160q0 -108 -92 -191q-90 -81 -287 -81q-212 0 -315 69q-105 71 -105 201q0 31 33 31zM367 -379l14 49q3 19 31 13q83 -17 137 -17q98 0 98 58q0 27 -14 38q-16 13 -55 13h-132q-33 0 -30 35l24 188h125l-8 -119h61q75 0 115 -43 q41 -44 41 -112q0 -78 -57 -123q-59 -47 -168 -47q-63 0 -160 20q-27 6 -27 23q0 3 1 6.5t2 8.5t2 9z" />
<glyph unicode="&#x160;" horiz-adv-x="1294" d="M127 414h121q28 0 28 -29q0 -250 386 -250q178 0 262 66t84 172q0 149 -209 164l-342 24q-359 24 -359 301q0 156 135 273q134 116 388 116q269 0 393 -106q125 -107 125 -279q0 -20 -31 -20h-121q-28 0 -31 35q-9 92 -88 153q-80 62 -245 62q-154 0 -248 -66 q-92 -65 -92 -166q0 -132 194 -147l336 -25q199 -15 289 -102t90 -217q0 -149 -131 -271q-129 -120 -393 -120q-275 0 -418 108q-148 112 -148 281v20q0 23 25 23zM647 1335l-8 -2q-31 0 -72 41l-239 232q-19 19 -19 28q0 16 15 25l32 20q18 11 29 11q7 0 43 -25l215 -149 l215 149q36 25 43 25q11 0 29 -11l33 -20q14 -8 14 -23q0 -9 -19 -28l-239 -232q-41 -41 -72 -41z" />
<glyph unicode="&#x161;" horiz-adv-x="1003" d="M135 281l109 -2q32 0 32 -31q0 -115 244 -115q199 0 199 119q0 71 -144 86l-200 20q-152 15 -213 70q-62 56 -62 156q0 108 99 190q101 84 280 84q195 0 287 -74t92 -184q0 -25 -24 -25h-119q-33 0 -39 37q-15 88 -197 88q-106 0 -151 -36q-47 -38 -47 -82q0 -62 106 -74 l197 -21q185 -18 250 -75q67 -58 67 -160q0 -108 -92 -191q-90 -81 -287 -81q-212 0 -315 69q-105 71 -105 201q0 31 33 31zM492 1016l-9 -2q-30 0 -71 41l-240 231q-18 18 -18 29q0 16 14 24l33 21q17 10 28 10q9 0 43 -24l215 -150l215 150q34 24 43 24q12 0 29 -10 l33 -21q14 -8 14 -22q0 -11 -18 -29l-240 -231q-41 -41 -71 -41z" />
<glyph unicode="&#x162;" horiz-adv-x="1290" d="M70 1073h-4q-9 0 -19 10t-10 19v98q0 9 10 19t19 10h1151q8 0 18 -10t10 -19v-98q0 -9 -10 -19t-18 -10h-486v-1048q0 -10 -6 -19q-4 -6 -16 -6h-131q-13 0 -17 6q-6 9 -6 19v1048h-485zM545 -195h-4q0 42 30 72q31 31 72 31q52 0 86 -37q33 -36 33 -109 q0 -206 -166 -258q-19 -8 -37 -8q-9 0 -12 10l-19 48q-9 15 7 22q110 37 110 129v4q-38 0 -70 29q-30 27 -30 67z" />
<glyph unicode="&#x163;" horiz-adv-x="739" d="M160 684h-113q-8 0 -18 10q-11 11 -11 19v98q0 7 11 18t18 11h111v190q0 11 12 23t23 12h110q11 0 23 -12t12 -23v-190h278q8 0 19 -11q10 -10 10 -18v-98q0 -9 -10 -19t-19 -10h-278v-389q0 -94 35 -129q33 -33 104 -33q56 0 133 47q28 16 43 -14l35 -68q8 -13 8 -24 q0 -19 -26 -33q-98 -59 -203 -59q-307 0 -307 313v389zM309 -215l4 -4q0 47 33 80t80 33q56 0 94 -41q37 -40 37 -121q0 -229 -184 -287q-21 -8 -41 -8q-14 0 -17 10l-20 53q-3 6 0 15t6 12q64 24 92 55q29 32 29 86v4q-47 0 -80 33t-33 80z" />
<glyph unicode="&#x164;" horiz-adv-x="1290" d="M70 1073h-4q-9 0 -19 10t-10 19v98q0 9 10 19t19 10h1151q8 0 18 -10t10 -19v-98q0 -9 -10 -19t-18 -10h-486v-1048q0 -10 -6 -19q-4 -6 -16 -6h-131q-13 0 -17 6q-6 9 -6 19v1048h-485zM647 1335l-8 -2q-31 0 -72 41l-239 232q-19 19 -19 28q0 16 15 25l32 20 q18 11 29 11q7 0 43 -25l215 -149l215 149q36 25 43 25q11 0 29 -11l33 -20q14 -8 14 -23q0 -9 -19 -28l-239 -232q-41 -41 -72 -41z" />
<glyph unicode="&#x165;" horiz-adv-x="739" d="M160 684h-113q-8 0 -18 10q-11 11 -11 19v98q0 7 11 18t18 11h111v190q0 11 12 23t23 12h110q11 0 23 -12t12 -23v-190h278q8 0 19 -11q10 -10 10 -18v-98q0 -9 -10 -19t-19 -10h-278v-389q0 -94 35 -129q33 -33 104 -33q56 0 133 47q28 16 43 -14l35 -68q8 -13 8 -24 q0 -19 -26 -33q-98 -59 -203 -59q-307 0 -307 313v389zM440 1346v2q0 48 33 77q36 31 80 31q58 0 94 -39q37 -40 37 -110q0 -200 -154 -295q-20 -13 -38 -13q-15 0 -25 17l-21 33q-8 13 -8 24q0 9 8 12q28 17 52 37q20 17 37 45q18 30 18 66v4q-44 0 -80 31q-33 29 -33 78z " />
<glyph unicode="&#x168;" horiz-adv-x="1523" d="M508 1335h-62q-30 0 -30 27q0 254 192 254q76 0 135 -47l84 -68q55 -43 84 -43q74 0 74 131q0 27 31 27h61q31 0 31 -27q0 -254 -193 -254q-76 0 -135 47l-84 68q-55 43 -84 43q-73 0 -73 -131q0 -27 -31 -27zM1188 573l-8 629q0 11 8 19t18 8h131q11 0 19 -8t8 -19v-631 q0 -293 -162 -442t-444 -149q-281 0 -443 149q-161 148 -161 442v631q0 11 8 19t18 8h131q11 0 19 -8t8 -19v-631q0 -216 111 -327t313 -111q204 0 315 111q114 114 111 329z" />
<glyph unicode="&#x169;" d="M254 1024h-61q-31 0 -31 27q0 254 192 254q75 0 135 -48l84 -67q55 -43 84 -43q74 0 74 131q0 27 31 27h61q31 0 31 -27q0 -254 -192 -254q-77 0 -136 47l-84 68q-55 43 -84 43q-73 0 -73 -131q0 -27 -31 -27zM762 102l-6 -2l-11 -10q-110 -110 -282 -110q-181 0 -264 96 q-86 100 -86 270v457q0 10 12 22q13 13 22 13h111q10 0 23 -13q12 -12 12 -22v-457q0 -102 45 -156q46 -55 135 -55q105 0 182 53q79 54 109 140v477q0 10 12 22q13 13 23 13h110q10 0 23 -13q12 -12 12 -22v-770q0 -11 -12 -23t-23 -12h-84q-22 0 -37 37z" />
<glyph unicode="&#x16a;" horiz-adv-x="1523" d="M1188 573l-8 629q0 11 8 19t18 8h131q11 0 19 -8t8 -19v-631q0 -293 -162 -442t-444 -149q-281 0 -443 149q-161 148 -161 442v631q0 11 8 19t18 8h131q11 0 19 -8t8 -19v-631q0 -216 111 -327t313 -111q204 0 315 111q114 114 111 329zM508 1374v123h491v-123h-491z" />
<glyph unicode="&#x16b;" d="M762 102l-6 -2l-11 -10q-110 -110 -282 -110q-181 0 -264 96q-86 100 -86 270v457q0 10 12 22q13 13 22 13h111q10 0 23 -13q12 -12 12 -22v-457q0 -102 45 -156q46 -55 135 -55q105 0 182 53q79 54 109 140v477q0 10 12 22q13 13 23 13h110q10 0 23 -13q12 -12 12 -22 v-770q0 -11 -12 -23t-23 -12h-84q-22 0 -37 37zM272 1069v123h492v-123h-492z" />
<glyph unicode="&#x16c;" horiz-adv-x="1523" d="M1188 573l-8 629q0 11 8 19t18 8h131q11 0 19 -8t8 -19v-631q0 -293 -162 -442t-444 -149q-281 0 -443 149q-161 148 -161 442v631q0 11 8 19t18 8h131q11 0 19 -8t8 -19v-631q0 -216 111 -327t313 -111q204 0 315 111q114 114 111 329zM754 1333v-2q-131 0 -205 74 t-74 194q0 21 21 21h92q20 0 20 -21q0 -61 41 -102t105 -41q63 0 104 41t41 102q0 21 21 21h92q20 0 20 -21q0 -118 -74 -192t-204 -74z" />
<glyph unicode="&#x16d;" d="M762 102l-6 -2l-11 -10q-110 -110 -282 -110q-181 0 -264 96q-86 100 -86 270v457q0 10 12 22q13 13 22 13h111q10 0 23 -13q12 -12 12 -22v-457q0 -102 45 -156q46 -55 135 -55q105 0 182 53q79 54 109 140v477q0 10 12 22q13 13 23 13h110q10 0 23 -13q12 -12 12 -22 v-770q0 -11 -12 -23t-23 -12h-84q-22 0 -37 37zM526 1006v-2q-131 0 -204 73q-74 74 -74 195q0 20 20 20h92q21 0 21 -20q0 -62 41 -103t104 -41q64 0 105 41t41 103q0 20 20 20h92q21 0 21 -20q0 -119 -74 -193q-73 -73 -205 -73z" />
<glyph unicode="&#x16e;" horiz-adv-x="1523" d="M1188 573l-8 629q0 11 8 19t18 8h131q11 0 19 -8t8 -19v-631q0 -293 -162 -442t-444 -149q-281 0 -443 149q-161 148 -161 442v631q0 11 8 19t18 8h131q11 0 19 -8t8 -19v-631q0 -216 111 -327t313 -111q204 0 315 111q114 114 111 329zM528 1522h-4q0 87 62 149t164 62 q101 0 163 -62t62 -149q0 -88 -62 -150q-61 -61 -161 -61q-101 0 -162 61q-62 62 -62 150zM647 1522v-2q0 -45 29 -74q27 -27 74 -27q44 0 73 29t29 74q0 42 -29 71t-73 29q-45 0 -74 -29t-29 -71z" />
<glyph unicode="&#x16f;" d="M762 102l-6 -2l-11 -10q-110 -110 -282 -110q-181 0 -264 96q-86 100 -86 270v457q0 10 12 22q13 13 22 13h111q10 0 23 -13q12 -12 12 -22v-457q0 -102 45 -156q46 -55 135 -55q105 0 182 53q79 54 109 140v477q0 10 12 22q13 13 23 13h110q10 0 23 -13q12 -12 12 -22 v-770q0 -11 -12 -23t-23 -12h-84q-22 0 -37 37zM307 1235h-4q0 87 62 149t163 62q102 0 164 -62t62 -149q0 -88 -62 -150q-61 -61 -162 -61q-100 0 -161 61q-62 62 -62 150zM426 1235v-2q0 -45 29 -74q26 -26 73 -26q46 0 74 28q29 29 29 74q0 43 -29 72q-28 28 -74 28 q-45 0 -73 -28q-29 -29 -29 -72z" />
<glyph unicode="&#x170;" horiz-adv-x="1523" d="M1188 573l-8 629q0 11 8 19t18 8h131q11 0 19 -8t8 -19v-631q0 -293 -162 -442t-444 -149q-281 0 -443 149q-161 148 -161 442v631q0 11 8 19t18 8h131q11 0 19 -8t8 -19v-631q0 -216 111 -327t313 -111q204 0 315 111q114 114 111 329zM829 1686l21 -19q22 -22 22 -43 q0 -35 -38 -70l-222 -208q-15 -11 -30 -11h-66q-16 0 -16 15q0 9 12 24l207 283q33 45 65 45q26 0 45 -16zM1171 1686l21 -19q22 -22 22 -43q0 -35 -38 -70l-222 -208q-15 -11 -30 -11h-66q-16 0 -16 15q0 9 12 24l207 283q33 45 65 45q26 0 45 -16z" />
<glyph unicode="&#x171;" d="M762 102l-6 -2l-11 -10q-110 -110 -282 -110q-181 0 -264 96q-86 100 -86 270v457q0 10 12 22q13 13 22 13h111q10 0 23 -13q12 -12 12 -22v-457q0 -102 45 -156q46 -55 135 -55q105 0 182 53q79 54 109 140v477q0 10 12 22q13 13 23 13h110q10 0 23 -13q12 -12 12 -22 v-770q0 -11 -12 -23t-23 -12h-84q-22 0 -37 37zM524 1374l21 -18q22 -22 22 -43q0 -34 -39 -70l-221 -209q-13 -10 -31 -10h-65q-16 0 -16 14q0 10 12 25l207 283q33 45 65 45q25 0 45 -17zM866 1374l21 -18q22 -22 22 -43q0 -34 -39 -70l-221 -209q-13 -10 -31 -10h-65 q-16 0 -16 14q0 10 12 25l207 283q33 45 65 45q25 0 45 -17z" />
<glyph unicode="&#x172;" horiz-adv-x="1523" d="M1188 573l-8 629q0 11 8 19t18 8h131q11 0 19 -8t8 -19v-631q0 -293 -162 -442t-444 -149q-281 0 -443 149q-161 148 -161 442v631q0 11 8 19t18 8h131q11 0 19 -8t8 -19v-631q0 -216 111 -327t313 -111q204 0 315 111q114 114 111 329zM1012 -326l-2 4q8 -36 8 -65 q0 -20 -25 -29q-41 -14 -108 -14q-98 0 -156 49q-57 48 -57 133q0 130 127 248h145q-129 -123 -129 -227q0 -82 100 -82h21q9 0 25 4t18 4q27 3 33 -25z" />
<glyph unicode="&#x173;" d="M762 102l-6 -2l-11 -10q-110 -110 -282 -110q-181 0 -264 96q-86 100 -86 270v457q0 10 12 22q13 13 22 13h111q10 0 23 -13q12 -12 12 -22v-457q0 -102 45 -156q46 -55 135 -55q105 0 182 53q79 54 109 140v477q0 10 12 22q13 13 23 13h110q10 0 23 -13q12 -12 12 -22 v-770q0 -11 -12 -23t-23 -12h-84q-22 0 -37 37zM999 -326l-2 4q9 -40 9 -65q0 -20 -25 -29q-41 -14 -109 -14q-97 0 -155 49t-58 133q0 130 127 248h146q-129 -123 -129 -227q0 -82 100 -82h21q8 0 24 4t19 4q26 3 32 -25z" />
<glyph unicode="&#x174;" horiz-adv-x="2097" d="M2068 1192l-585 -1194h-58l-364 838l-14 45h-5q-7 -30 -14 -45l-364 -838h-58l-581 1190q-9 15 -9 24q0 13 17 13h143h17q6 0 10 -2q7 -4 10 -9q4 -8 6 -14l346 -711q17 -31 31 -71l27 -74l8 -31h8q26 90 55 160l326 754h57l326 -754l55 -160h8q36 119 64 179l346 710 q11 21 14 23q8 4 27 4h143q17 0 17 -12q0 -10 -9 -25zM1038 1686l9 2q30 0 71 -41l240 -232q18 -18 18 -29q0 -16 -14 -24l-33 -21q-17 -10 -29 -10q-7 0 -43 25l-215 149l-215 -149q-36 -25 -43 -25q-11 0 -28 10l-33 21q-14 8 -14 22q0 11 18 29l240 232q41 41 71 41z" />
<glyph unicode="&#x175;" horiz-adv-x="1374" d="M215 811l184 -412l25 -104h8q8 52 25 98l190 447h80l191 -447l26 -98h8q8 66 25 104l182 412q9 21 17 25t24 4h127q16 0 16 -15q0 -6 -4 -18l-354 -807h-70l-190 449l-35 108h-6q-14 -57 -35 -108l-190 -449h-70l-354 807q-4 12 -4 18q0 15 16 15h127q17 0 25 -4 q7 -3 16 -25zM702 1382l9 2q30 0 71 -41l240 -231q18 -18 18 -29q0 -16 -14 -24l-33 -21q-17 -10 -28 -10q-7 0 -43 25l-215 149l-215 -149q-36 -25 -43 -25q-12 0 -29 10l-33 21q-14 8 -14 22q0 11 18 29l240 231q41 41 71 41z" />
<glyph unicode="&#x176;" horiz-adv-x="1282" d="M551 514l-526 686q-9 9 -9 17q0 12 13 12h155q30 0 49 -25l310 -403l88 -125h12q62 90 88 125l309 403q19 25 50 25h155q12 0 12 -12q0 -9 -8 -17l-522 -686v-489q0 -10 -6 -19q-4 -6 -16 -6h-132q-12 0 -16 6q-6 9 -6 19v489zM631 1690l8 2q31 0 72 -41l239 -232 q19 -19 19 -28q0 -16 -15 -25l-32 -20q-18 -11 -29 -11q-7 0 -43 25l-215 149l-215 -149q-36 -25 -43 -25q-11 0 -29 11l-33 20q-14 8 -14 23q0 10 18 28l240 232q41 41 72 41z" />
<glyph unicode="&#x177;" horiz-adv-x="1003" d="M963 788l-517 -1273q-9 -25 -45 -25h-131q-16 0 -16 16q0 8 10 35l193 473l-414 779q-10 17 -10 30q0 17 18 17h133q34 0 49 -27l261 -489l43 -107h4l241 596q12 27 43 27h131q17 0 17 -17q0 -8 -10 -35zM508 1382l8 2q31 0 72 -41l239 -231q19 -19 19 -29q0 -15 -15 -24 l-32 -21q-17 -10 -29 -10q-7 0 -43 25l-215 149l-215 -149q-36 -25 -43 -25q-12 0 -29 10l-32 21q-15 9 -15 22q0 10 19 29l239 231q41 41 72 41z" />
<glyph unicode="&#x178;" horiz-adv-x="1282" d="M551 514l-526 686q-9 9 -9 17q0 12 13 12h155q30 0 49 -25l310 -403l88 -125h12q62 90 88 125l309 403q19 25 50 25h155q12 0 12 -12q0 -9 -8 -17l-522 -686v-489q0 -10 -6 -19q-4 -6 -16 -6h-132q-12 0 -16 6q-6 9 -6 19v489zM344 1446q0 47 33 80t80 33t80 -33 q32 -32 32 -80t-32 -80q-33 -33 -80 -33t-80 33t-33 80zM709 1446q0 48 32 80q33 33 80 33t80 -33t33 -80t-33 -80t-80 -33t-80 33q-32 32 -32 80z" />
<glyph unicode="&#x179;" horiz-adv-x="1374" d="M61 0l-4 6l815 971q17 22 48 49q32 28 36 31l13 10v6h-840q-8 0 -18 10q-11 11 -11 19v98q0 8 11 19q10 10 18 10h1182v-4l-840 -998q-5 -5 -16 -15.5t-17 -16.5q-18 -18 -30 -27l-11 -8v-4h865q7 0 18 -11q10 -10 10 -18v-98q0 -11 -8 -19q-10 -10 -18 -10h-1203z M909 1688l29 -27q23 -23 23 -47q0 -35 -35 -62l-244 -202q-15 -11 -31 -11h-65q-17 0 -17 15q0 8 13 24l206 283q33 45 70 45q30 0 51 -18z" />
<glyph unicode="&#x17a;" horiz-adv-x="892" d="M803 0h-768v2l436 596q10 12 37 39q22 22 37 31l12 10v4h-461q-8 0 -18 10q-8 8 -8 19v98q0 8 10 18q11 11 18 11h752v-7l-428 -581q-30 -40 -37 -47q-22 -22 -37 -31l-12 -12v-4h467q7 0 18 -11q10 -10 10 -18v-98q0 -9 -10 -19t-18 -10zM631 1372l31 -26q22 -19 22 -48 q0 -34 -35 -61l-243 -203q-13 -10 -31 -10h-66q-16 0 -16 14q0 10 12 25l207 283q33 45 70 45q27 0 49 -19z" />
<glyph unicode="&#x17b;" horiz-adv-x="1374" d="M61 0l-4 6l815 971q17 22 48 49q32 28 36 31l13 10v6h-840q-8 0 -18 10q-11 11 -11 19v98q0 8 11 19q10 10 18 10h1182v-4l-840 -998q-5 -5 -16 -15.5t-17 -16.5q-18 -18 -30 -27l-11 -8v-4h865q7 0 18 -11q10 -10 10 -18v-98q0 -11 -8 -19q-10 -10 -18 -10h-1203z M571 1448q0 44 31 80q29 33 78 33t78 -33q30 -34 30 -80t-30 -80q-29 -33 -78 -33t-78 33q-31 36 -31 80z" />
<glyph unicode="&#x17c;" horiz-adv-x="892" d="M803 0h-768v2l436 596q10 12 37 39q22 22 37 31l12 10v4h-461q-8 0 -18 10q-8 8 -8 19v98q0 8 10 18q11 11 18 11h752v-7l-428 -581q-30 -40 -37 -47q-22 -22 -37 -31l-12 -12v-4h467q7 0 18 -11q10 -10 10 -18v-98q0 -9 -10 -19t-18 -10zM338 1108q0 47 33 80t80 33 q46 0 79 -33t33 -80t-33 -80t-79 -33q-47 0 -80 33t-33 80z" />
<glyph unicode="&#x17d;" horiz-adv-x="1374" d="M61 0l-4 6l815 971q17 22 48 49q32 28 36 31l13 10v6h-840q-8 0 -18 10q-11 11 -11 19v98q0 8 11 19q10 10 18 10h1182v-4l-840 -998q-5 -5 -16 -15.5t-17 -16.5q-18 -18 -30 -27l-11 -8v-4h865q7 0 18 -11q10 -10 10 -18v-98q0 -11 -8 -19q-10 -10 -18 -10h-1203z M688 1337l-8 -2q-31 0 -72 41l-239 232q-19 19 -19 28q0 16 15 25l32 20q18 11 29 11q7 0 43 -25l215 -149l215 149q36 25 43 25q11 0 29 -11l33 -20q14 -8 14 -23q0 -9 -19 -28l-239 -232q-41 -41 -72 -41z" />
<glyph unicode="&#x17e;" horiz-adv-x="892" d="M803 0h-768v2l436 596q10 12 37 39q22 22 37 31l12 10v4h-461q-8 0 -18 10q-8 8 -8 19v98q0 8 10 18q11 11 18 11h752v-7l-428 -581q-30 -40 -37 -47q-22 -22 -37 -31l-12 -12v-4h467q7 0 18 -11q10 -10 10 -18v-98q0 -9 -10 -19t-18 -10zM459 1016l-8 -2q-31 0 -72 41 l-240 231q-18 18 -18 29q0 16 14 24l33 21q17 10 29 10q9 0 43 -24l215 -150l215 150q34 24 43 24q11 0 28 -10l33 -21q14 -8 14 -22q0 -11 -18 -29l-240 -231q-41 -41 -71 -41z" />
<glyph unicode="&#x192;" horiz-adv-x="897" d="M506 840l207 2q7 0 18 -11q10 -10 10 -18v-98q0 -11 -8 -19q-10 -10 -18 -10h-248l-176 -899q-61 -315 -332 -315q-139 0 -221 88q-10 10 -10 16q0 4 10 21l59 75q15 21 39 0q59 -47 119 -47q62 0 102.5 40.5t55.5 119.5l176 899h-142q-8 0 -18 10q-8 8 -8 19v98 q0 8 10 18q11 11 19 11h172l38 196q35 171 125 252q95 86 234 86q96 0 166 -37q22 -13 22 -28q0 -8 -10 -31l-35 -70q-9 -21 -37 -12q-53 21 -96 21q-147 0 -184 -181z" />
<glyph unicode="&#x1fc;" horiz-adv-x="1785" d="M1593 557l-632 -2v-401h716q8 0 19 -11q10 -10 10 -18v-98q0 -9 -10 -19q-8 -8 -19 -8h-872q-13 0 -19 6q-8 8 -8 19v229h-440l-123 -227q-10 -20 -16 -23q-8 -4 -27 -4h-133q-19 0 -19 14q0 1 1.5 4l4.5 9t5 12l631 1165q12 25 40 25h953q8 0 18 -10t10 -19v-98 q0 -9 -10 -19t-18 -10h-697v-360h635q8 0 19 -11q10 -10 10 -18v-98q0 -9 -10 -19t-19 -10zM668 856l-244 -448h356v663h-16q-34 -99 -96 -215zM1319 1683l31 -26q22 -19 22 -47q0 -35 -35 -62l-243 -202q-15 -11 -31 -11h-66q-16 0 -16 15q0 9 12 24l207 283q33 45 70 45 q27 0 49 -19z" />
<glyph unicode="&#x1fd;" horiz-adv-x="1761" d="M1587 240l39 -45q14 -14 14 -33t-24 -43q-145 -142 -381 -142q-248 0 -381 154h-8q-20 -20 -53 -43q-84 -59 -162 -86q-83 -25 -193 -25q-158 0 -245 72q-91 76 -91 189q0 109 84 178q82 67 265 67h309v17q0 101 -53 151q-52 49 -197 49q-108 0 -154 -30q-45 -29 -45 -99 v-6q0 -18 -35 -18h-110q-9 0 -21 12t-12 23v6q0 124 92 198t287 74q247 0 356 -133h11q133 133 344 133q212 0 325 -110q122 -118 113 -277l-6 -121h-711q18 -98 98 -157q82 -60 197 -60q170 0 277 98q21 21 38 21q19 0 33 -14zM1219 700q-110 0 -189 -55t-88 -162h531 q-6 217 -254 217zM436 131v2q200 0 322 111l20 18q-14 32 -20 86h-309q-170 0 -170 -110q0 -51 43 -78q47 -29 114 -29zM1071 1372l31 -26q22 -19 22 -48q0 -34 -34 -61l-244 -203q-13 -10 -31 -10h-65q-17 0 -17 14q0 10 12 25l207 283q33 45 70 45q27 0 49 -19z" />
<glyph unicode="&#x1fe;" horiz-adv-x="1531" d="M766 1249l4 4q242 0 418 -129l129 129l86 -86l-125 -125q154 -171 154 -424q0 -289 -191 -462q-188 -170 -475 -170q-243 0 -420 125l-127 -125l-86 84l123 123q-154 171 -154 423q0 288 191 461q190 172 473 172zM770 1098v-2q-206 0 -344 -129q-139 -130 -139 -351 q0 -173 96 -301l688 691q-127 92 -301 92zM1253 616v2q0 182 -94 304l-688 -691q127 -92 299 -92q206 0 344 129q139 130 139 348zM997 1690l31 -27q23 -20 23 -47q0 -35 -35 -62l-244 -202q-15 -11 -31 -11h-65q-17 0 -17 15q0 8 13 24l207 283q33 45 69 45q28 0 49 -18z " />
<glyph unicode="&#x1ff;" horiz-adv-x="1126" d="M123 66l72 71q-93 116 -93 283q0 209 131 325q132 117 332 117q158 0 277 -76l76 76l86 -86l-72 -71q92 -115 92 -283q0 -210 -131 -326q-129 -114 -332 -114q-167 0 -276 73l-76 -73zM283 420h-2q0 -93 36 -158l400 400q-70 43 -156 43q-126 0 -203 -80 q-75 -78 -75 -205zM842 420v-2q0 88 -41 153l-398 -397q65 -41 158 -41q126 0 203 80q78 81 78 207zM770 1372l31 -26q22 -19 22 -48q0 -34 -35 -61l-243 -203q-13 -10 -31 -10h-65q-17 0 -17 14q0 10 12 25l207 283q33 45 70 45q27 0 49 -19z" />
<glyph unicode="&#x200;" horiz-adv-x="1409" d="M1159 27l-112 227h-682l-113 -227q-10 -20 -16 -23q-8 -4 -25 -4h-133q-19 0 -19 14q0 1 1.5 4l4.5 9t5 12l602 1190h73l603 -1190q10 -23 10 -25q0 -14 -19 -14h-133h-20q-6 0 -12 6t-15 21zM608 737l-166 -327h527l-164 327q-12 22 -39 84q-24 55 -39 99l-14 43h-13 q-50 -140 -92 -226zM633 1669l20 19q19 16 45 16q33 0 66 -45l207 -283q12 -15 12 -24q0 -15 -16 -15h-66q-16 0 -31 11l-221 208q-39 36 -39 70q0 20 23 43zM291 1669l20 19q19 16 45 16q33 0 66 -45l207 -283q12 -15 12 -24q0 -15 -16 -15h-66q-16 0 -31 11l-221 208 q-39 36 -39 70q0 20 23 43z" />
<glyph unicode="&#x201;" horiz-adv-x="1054" d="M762 96l-6 -6l-31 -24q-113 -91 -305 -91q-154 0 -236 70q-80 71 -80 184q0 106 84 172t265 66h309v33q0 101 -53 151q-52 49 -197 49q-107 0 -154 -30q-45 -29 -45 -99v-6q0 -18 -34 -18h-111q-9 0 -21 12t-12 23v6q0 124 92 198t287 74q226 0 326 -100 q102 -102 102 -277v-448q0 -11 -12 -23t-23 -12h-86q-18 0 -33 35zM420 129v2q95 0 190 31q92 30 152 78v90h-309q-170 0 -170 -103q0 -98 137 -98zM514 1354l21 18q20 17 45 17q31 0 65 -46l207 -282q12 -15 12 -25q0 -14 -16 -14h-66q-17 0 -30 10l-222 209q-38 35 -38 70 q0 21 22 43zM172 1354l21 18q20 17 45 17q31 0 65 -46l207 -282q12 -15 12 -25q0 -14 -16 -14h-66q-17 0 -30 10l-222 209q-38 35 -38 70q0 21 22 43z" />
<glyph unicode="&#x202;" horiz-adv-x="1409" d="M1159 27l-112 227h-682l-113 -227q-10 -20 -16 -23q-8 -4 -25 -4h-133q-19 0 -19 14q0 1 1.5 4l4.5 9t5 12l602 1190h73l603 -1190q10 -23 10 -25q0 -14 -19 -14h-133h-20q-6 0 -12 6t-15 21zM608 737l-166 -327h527l-164 327q-12 22 -39 84q-24 55 -39 99l-14 43h-13 q-50 -140 -92 -226zM707 1622l-5 -2q133 0 207 -74t74 -192q0 -21 -20 -21h-93q-20 0 -20 21q0 61 -41 102t-104 41q-64 0 -105 -41t-41 -102q0 -21 -20 -21h-93q-20 0 -20 21q0 120 74 194t207 74z" />
<glyph unicode="&#x203;" horiz-adv-x="1054" d="M762 96l-6 -6l-31 -24q-113 -91 -305 -91q-154 0 -236 70q-80 71 -80 184q0 106 84 172t265 66h309v33q0 101 -53 151q-52 49 -197 49q-107 0 -154 -30q-45 -29 -45 -99v-6q0 -18 -34 -18h-111q-9 0 -21 12t-12 23v6q0 124 92 198t287 74q226 0 326 -100 q102 -102 102 -277v-448q0 -11 -12 -23t-23 -12h-86q-18 0 -33 35zM420 129v2q95 0 190 31q92 30 152 78v90h-309q-170 0 -170 -103q0 -98 137 -98zM541 1290l-4 -2q132 0 206 -74t74 -192q0 -21 -20 -21h-92q-21 0 -21 21q0 61 -41 102t-104 41q-64 0 -105 -41t-41 -102 q0 -21 -20 -21h-92q-21 0 -21 21q0 121 74 195q73 73 207 73z" />
<glyph unicode="&#x204;" horiz-adv-x="1245" d="M1053 557l-697 -4v-401h779q7 0 18 -11q10 -10 10 -18v-98q0 -9 -10 -19q-8 -8 -18 -8h-934q-10 0 -19 6q-8 8 -8 19v1179q0 11 8 19t19 8h913q9 0 19 -10t10 -19v-98q0 -9 -10 -19t-19 -10h-758v-360h697q7 0 18 -11q10 -10 10 -18v-98q0 -9 -10 -19t-18 -10zM573 1638 l21 19q19 16 45 16q33 0 66 -45l206 -282q13 -16 13 -25q0 -14 -17 -14h-65q-18 0 -31 10l-221 209q-39 36 -39 69q0 21 22 43zM231 1638l21 19q19 16 45 16q32 0 65 -45l207 -282q13 -16 13 -25q0 -14 -17 -14h-65q-18 0 -31 10l-221 209q-39 36 -39 69q0 21 22 43z" />
<glyph unicode="&#x205;" horiz-adv-x="1105" d="M932 240l39 -43q14 -14 14 -33t-24 -43q-144 -141 -381 -141q-208 0 -342 114q-140 119 -140 324q0 188 127 315q125 125 338 125t326 -110q121 -117 112 -277l-6 -104h-710q12 -102 96 -168q82 -64 203 -64q169 0 276 98q21 21 39 21q19 0 33 -14zM563 702 q-110 0 -184 -51q-77 -53 -92 -149h530q-15 200 -254 200zM498 1356l20 18q20 17 45 17q33 0 66 -45l207 -283q12 -15 12 -25q0 -14 -17 -14h-65q-18 0 -31 10l-221 209q-39 36 -39 70q0 20 23 43zM156 1356l20 18q20 17 45 17q33 0 66 -45l207 -283q12 -15 12 -25 q0 -14 -17 -14h-65q-18 0 -31 10l-221 209q-39 36 -39 70q0 20 23 43z" />
<glyph unicode="&#x206;" horiz-adv-x="1245" d="M1053 557l-697 -4v-401h779q7 0 18 -11q10 -10 10 -18v-98q0 -9 -10 -19q-8 -8 -18 -8h-934q-10 0 -19 6q-8 8 -8 19v1179q0 11 8 19t19 8h913q9 0 19 -10t10 -19v-98q0 -9 -10 -19t-19 -10h-758v-360h697q7 0 18 -11q10 -10 10 -18v-98q0 -9 -10 -19t-18 -10zM647 1567 l-2 -2q133 0 207 -74t74 -193q0 -20 -21 -20h-92q-20 0 -20 20q0 62 -41 103t-105 41q-63 0 -104 -41t-41 -103q0 -20 -21 -20h-92q-20 0 -20 20q0 122 73 195q74 74 205 74z" />
<glyph unicode="&#x207;" horiz-adv-x="1105" d="M932 240l39 -43q14 -14 14 -33t-24 -43q-144 -141 -381 -141q-208 0 -342 114q-140 119 -140 324q0 188 127 315q125 125 338 125t326 -110q121 -117 112 -277l-6 -104h-710q12 -102 96 -168q82 -64 203 -64q169 0 276 98q21 21 39 21q19 0 33 -14zM563 702 q-110 0 -184 -51q-77 -53 -92 -149h530q-15 200 -254 200zM551 1292l-4 -2q134 0 207 -73t73 -193q0 -20 -20 -20h-92q-21 0 -21 20q0 61 -41 102t-104 41q-64 0 -105 -41t-41 -102q0 -20 -20 -20h-92q-21 0 -21 20q0 121 74 195q73 73 207 73z" />
<glyph unicode="&#x208;" horiz-adv-x="532" d="M188 1669l21 19q19 16 45 16q32 0 65 -45l207 -283q13 -16 13 -24q0 -15 -17 -15h-65q-16 0 -31 11l-221 208q-39 36 -39 70q0 21 22 43zM-152 1669l21 19q19 16 45 16q33 0 66 -45l204 -283q13 -16 13 -24q0 -15 -17 -15h-65q-16 0 -31 11l-219 208q-39 36 -39 70 q0 21 22 43zM356 1204v-1179q0 -11 -8 -19q-6 -6 -18 -6h-131q-13 0 -19 6q-8 8 -8 19v1179q0 11 8 19t19 8h131q10 0 18 -8t8 -19z" />
<glyph unicode="&#x209;" horiz-adv-x="425" d="M131 1358l21 18q20 17 45 17q32 0 65 -45l207 -283q12 -15 12 -25q0 -14 -16 -14h-66q-17 0 -30 10l-222 209q-38 35 -38 70q0 21 22 43zM-209 1358l21 18q20 17 45 17q32 0 65 -45l205 -283q12 -15 12 -25q0 -14 -16 -14h-66q-17 0 -30 10l-220 209q-38 35 -38 70 q0 21 22 43zM303 805v-770q0 -11 -12 -23t-23 -12h-110q-11 0 -23 12t-12 23v770q0 10 12 22q13 13 23 13h110q10 0 23 -13q12 -12 12 -22z" />
<glyph unicode="&#x20a;" horiz-adv-x="532" d="M266 1622l-4 -2q133 0 207 -74t74 -192q0 -21 -21 -21h-92q-20 0 -20 21q0 61 -41 102t-105 41q-63 0 -104 -41t-41 -102q0 -21 -21 -21h-92q-18 0 -18 21q0 123 71 194q74 74 207 74zM352 1202v-1179q0 -11 -8 -19q-9 -6 -18 -6h-131q-10 0 -19 6q-8 8 -8 19v1179 q0 11 8 19t19 8h131q10 0 18 -8t8 -19z" />
<glyph unicode="&#x20b;" horiz-adv-x="425" d="M203 1294l-4 -2q134 0 207 -73t73 -193q0 -20 -20 -20h-92q-21 0 -21 20q0 61 -41 102t-104 41q-64 0 -105 -41t-41 -102q0 -20 -20 -20h-90q-21 0 -21 20q0 121 74 195q70 73 205 73zM299 803v-770q0 -11 -12 -23q-10 -10 -23 -10h-110q-13 0 -23 10q-12 12 -12 23v770 q0 10 12 22q13 13 23 13h110q10 0 23 -13q12 -12 12 -22z" />
<glyph unicode="&#x20c;" horiz-adv-x="1531" d="M766 1249v4q285 0 475 -172q191 -173 191 -463q0 -289 -191 -462q-188 -170 -475 -170q-285 0 -473 170q-191 173 -191 460q0 288 191 461q190 172 473 172zM766 1098v4q-206 0 -344 -129q-139 -130 -139 -350q0 -218 139 -351q137 -131 344 -131q206 0 344 129 q139 130 139 348q0 223 -137 351q-138 129 -346 129zM672 1677l20 19q19 16 45 16q33 0 66 -45l207 -283q12 -15 12 -24q0 -14 -16 -14h-66q-18 0 -31 10l-221 209q-39 36 -39 69q0 20 23 43zM330 1677l20 19q19 16 45 16q33 0 66 -45l207 -283q12 -15 12 -24q0 -14 -16 -14 h-66q-18 0 -31 10l-221 209q-39 36 -39 69q0 20 23 43z" />
<glyph unicode="&#x20d;" horiz-adv-x="1126" d="M563 860h4q201 0 330 -117t129 -325q0 -210 -131 -326q-130 -115 -332 -115t-332 115q-131 116 -131 326q0 209 131 325q132 117 332 117zM848 420l-4 -2q0 126 -76 205t-203 79t-203 -79q-75 -78 -75 -205q0 -132 75 -207q78 -78 205 -78q126 0 203 80q78 81 78 207z M510 1356l20 18q20 17 45 17q33 0 66 -45l207 -283q12 -15 12 -25q0 -14 -16 -14h-66q-17 0 -30 10l-222 209q-39 36 -39 70q0 20 23 43zM168 1356l20 18q20 17 45 17q33 0 66 -45l207 -283q12 -15 12 -25q0 -14 -16 -14h-66q-17 0 -30 10l-222 209q-39 36 -39 70 q0 20 23 43z" />
<glyph unicode="&#x20e;" horiz-adv-x="1531" d="M766 1249v4q285 0 475 -172q191 -173 191 -463q0 -289 -191 -462q-188 -170 -475 -170q-285 0 -473 170q-191 173 -191 460q0 288 191 461q190 172 473 172zM766 1098v4q-206 0 -344 -129q-139 -130 -139 -350q0 -218 139 -351q137 -131 344 -131q206 0 344 129 q139 130 139 348q0 223 -137 351q-138 129 -346 129zM766 1630l-4 -2q133 0 207 -74q73 -73 73 -192q0 -21 -20 -21h-92q-21 0 -21 21q0 61 -41 102t-104 41q-64 0 -105 -41t-41 -102q0 -21 -20 -21h-92q-21 0 -21 21q0 120 74 194t207 74z" />
<glyph unicode="&#x20f;" horiz-adv-x="1126" d="M563 860h4q201 0 330 -117t129 -325q0 -210 -131 -326q-130 -115 -332 -115t-332 115q-131 116 -131 326q0 209 131 325q132 117 332 117zM848 420l-4 -2q0 126 -76 205t-203 79t-203 -79q-75 -78 -75 -205q0 -132 75 -207q78 -78 205 -78q126 0 203 80q78 81 78 207z M561 1292l-4 -2q134 0 207 -73q74 -74 74 -193q0 -20 -21 -20h-92q-20 0 -20 20q0 61 -41 102t-105 41q-63 0 -104 -41t-41 -102q0 -20 -21 -20h-92q-20 0 -20 20q0 122 73 195t207 73z" />
<glyph unicode="&#x210;" horiz-adv-x="1327" d="M176 25v1177q0 11 8 19t19 8h524q226 0 363 -107q139 -109 139 -297q0 -144 -86 -239q-84 -93 -230 -131v-4q45 -42 78 -89l234 -323q14 -17 14 -27q0 -12 -16 -12h-168q-21 0 -29 14l-303 420h-363v-409q0 -11 -8 -19q-6 -6 -18 -6h-131q-13 0 -19 6q-8 8 -8 19z M721 1071l-365 -4v-494h365q142 0 233 66q90 66 90 182q0 121 -88 185q-93 68 -235 65zM547 1663l20 18q20 17 45 17q33 0 66 -45l207 -283q12 -15 12 -24q0 -15 -16 -15h-66q-18 0 -31 10l-221 209q-39 36 -39 70q0 20 23 43zM205 1663l20 18q20 17 45 17q33 0 66 -45 l207 -283q12 -15 12 -24q0 -15 -16 -15h-66q-18 0 -31 10l-221 209q-39 36 -39 70q0 20 23 43z" />
<glyph unicode="&#x211;" horiz-adv-x="894" d="M303 723v-2l14 16q109 121 258 121q271 0 271 -295v-20q0 -9 -12 -21t-21 -12h-111q-8 0 -20 12t-12 23v8q0 74 -33 113t-92 39q-78 0 -146 -56q-70 -58 -96 -137v-477q0 -11 -12 -23t-23 -12h-110q-11 0 -23 12t-12 23v770q0 10 12 22q13 13 23 13h84q20 0 32 -35z M371 1356l20 18q20 17 45 17q33 0 66 -45l207 -283q12 -15 12 -25q0 -14 -16 -14h-66q-18 0 -31 10l-221 209q-39 36 -39 70q0 20 23 43zM29 1356l20 18q20 17 45 17q33 0 66 -45l207 -283q12 -15 12 -25q0 -14 -17 -14h-65q-18 0 -31 10l-221 209q-39 36 -39 70q0 20 23 43 z" />
<glyph unicode="&#x212;" horiz-adv-x="1327" d="M176 25v1177q0 11 8 19t19 8h524q226 0 363 -107q139 -109 139 -297q0 -144 -86 -239q-84 -93 -230 -131v-4q45 -42 78 -89l234 -323q14 -17 14 -27q0 -12 -16 -12h-168q-21 0 -29 14l-303 420h-363v-409q0 -11 -8 -19q-6 -6 -18 -6h-131q-13 0 -19 6q-8 8 -8 19z M721 1071l-365 -4v-494h365q142 0 233 66q90 66 90 182q0 121 -88 185q-93 68 -235 65zM621 1616l-3 -2q133 0 207 -74t74 -192q0 -21 -20 -21h-93q-20 0 -20 21q0 61 -41 102t-104 41q-64 0 -105 -41t-41 -102q0 -21 -20 -21h-93q-20 0 -20 21q0 120 74 194t205 74z" />
<glyph unicode="&#x213;" horiz-adv-x="894" d="M303 723v-2l14 16q109 121 258 121q271 0 271 -295v-20q0 -9 -12 -21t-21 -12h-111q-8 0 -20 12t-12 23v8q0 74 -33 113t-92 39q-78 0 -146 -56q-70 -58 -96 -137v-477q0 -11 -12 -23t-23 -12h-110q-11 0 -23 12t-12 23v770q0 10 12 22q13 13 23 13h84q20 0 32 -35z M440 1292l-4 -2q134 0 207 -73q74 -74 74 -193q0 -20 -21 -20h-92q-20 0 -20 20q0 61 -41 102t-105 41q-63 0 -104 -41t-41 -102q0 -20 -21 -20h-92q-20 0 -20 20q0 122 73 195t207 73z" />
<glyph unicode="&#x214;" horiz-adv-x="1523" d="M1188 573l-8 629q0 11 8 19t18 8h131q11 0 19 -8t8 -19v-631q0 -293 -162 -442t-444 -149q-281 0 -443 149q-161 148 -161 442v631q0 11 8 19t18 8h131q11 0 19 -8t8 -19v-631q0 -216 111 -327t313 -111q204 0 315 111q114 114 111 329zM659 1667l21 19q19 16 45 16 q33 0 66 -45l206 -283q13 -16 13 -24q0 -15 -17 -15h-65q-16 0 -31 11l-221 208q-39 36 -39 70q0 21 22 43zM317 1667l21 19q19 16 45 16q33 0 66 -45l206 -283q13 -16 13 -24q0 -15 -17 -15h-65q-16 0 -31 11l-221 208q-39 36 -39 70q0 21 22 43z" />
<glyph unicode="&#x215;" d="M762 102l-6 -2l-11 -10q-110 -110 -282 -110q-181 0 -264 96q-86 100 -86 270v457q0 10 12 22q13 13 22 13h111q10 0 23 -13q12 -12 12 -22v-457q0 -102 45 -156q46 -55 135 -55q105 0 182 53q79 54 109 140v477q0 10 12 22q13 13 23 13h110q10 0 23 -13q12 -12 12 -22 v-770q0 -11 -12 -23t-23 -12h-84q-22 0 -37 37zM475 1356l21 18q20 17 45 17q32 0 65 -45l207 -283q12 -15 12 -25q0 -14 -16 -14h-66q-17 0 -30 10l-221 209q-39 36 -39 70q0 21 22 43zM133 1356l21 18q20 17 45 17q32 0 65 -45l207 -283q12 -15 12 -25q0 -14 -16 -14h-66 q-17 0 -30 10l-221 209q-39 36 -39 70q0 21 22 43z" />
<glyph unicode="&#x216;" horiz-adv-x="1523" d="M1188 573l-8 629q0 11 8 19t18 8h131q11 0 19 -8t8 -19v-631q0 -293 -162 -442t-444 -149q-281 0 -443 149q-161 148 -161 442v631q0 11 8 19t18 8h131q11 0 19 -8t8 -19v-631q0 -216 111 -327t313 -111q204 0 315 111q114 114 111 329zM754 1620l-4 -2q132 0 206 -74 t74 -192q0 -21 -20 -21h-92q-21 0 -21 21q0 61 -41 102t-104 41q-64 0 -105 -41t-41 -102q0 -21 -20 -21h-92q-21 0 -21 21q0 120 74 194t207 74z" />
<glyph unicode="&#x217;" d="M762 102l-6 -2l-11 -10q-110 -110 -282 -110q-181 0 -264 96q-86 100 -86 270v457q0 10 12 22q13 13 22 13h111q10 0 23 -13q12 -12 12 -22v-457q0 -102 45 -156q46 -55 135 -55q105 0 182 53q79 54 109 140v477q0 10 12 22q13 13 23 13h110q10 0 23 -13q12 -12 12 -22 v-770q0 -11 -12 -23t-23 -12h-84q-22 0 -37 37zM522 1292l-4 -2q134 0 207 -73q74 -74 74 -193q0 -20 -21 -20h-92q-20 0 -20 20q0 61 -41 102t-105 41q-63 0 -104 -41t-41 -102q0 -20 -21 -20h-92q-20 0 -20 20q0 122 73 195t207 73z" />
<glyph unicode="&#x218;" horiz-adv-x="1294" d="M127 414h121q28 0 28 -29q0 -250 386 -250q178 0 262 66t84 172q0 149 -209 164l-342 24q-359 24 -359 301q0 156 135 273q134 116 388 116q269 0 393 -106q125 -107 125 -279q0 -20 -31 -20h-121q-28 0 -31 35q-9 92 -88 153q-80 62 -245 62q-154 0 -248 -66 q-92 -65 -92 -166q0 -132 194 -147l336 -25q199 -15 289 -102t90 -217q0 -149 -131 -271q-129 -120 -393 -120q-275 0 -418 108q-148 112 -148 281v20q0 23 25 23zM545 -195h-2q0 42 30 72q31 31 72 31q52 0 86 -37q33 -36 33 -109q0 -206 -166 -258q-19 -8 -37 -8 q-7 0 -14 10l-19 48q-9 15 7 22q110 37 110 129v4q-38 0 -70 29q-30 27 -30 67z" />
<glyph unicode="&#x219;" horiz-adv-x="1003" d="M135 281l109 -2q32 0 32 -31q0 -115 244 -115q199 0 199 119q0 71 -144 86l-200 20q-152 15 -213 70q-62 56 -62 156q0 108 99 190q101 84 280 84q195 0 287 -74t92 -184q0 -25 -24 -25h-119q-33 0 -39 37q-15 88 -197 88q-106 0 -151 -36q-47 -38 -47 -82q0 -62 106 -74 l197 -21q185 -18 250 -75q67 -58 67 -160q0 -108 -92 -191q-90 -81 -287 -81q-212 0 -315 69q-105 71 -105 201q0 31 33 31zM416 -217l4 -4q0 47 33 80q32 32 79 32q57 0 95 -41q37 -40 37 -120q0 -228 -185 -287q-21 -8 -41 -8q-13 0 -16 10l-21 53q-3 6 0 15q3 7 7 12 q64 24 92 55t28 86v4q-46 0 -79 33t-33 80z" />
<glyph unicode="&#x21a;" horiz-adv-x="1290" d="M70 1073h-4q-9 0 -19 10t-10 19v98q0 9 10 19t19 10h1151q8 0 18 -10t10 -19v-98q0 -9 -10 -19t-18 -10h-486v-1048q0 -10 -6 -19q-4 -6 -16 -6h-131q-13 0 -17 6q-6 9 -6 19v1048h-485zM545 -195h-4q0 42 30 72q31 31 72 31q52 0 86 -37q33 -36 33 -109 q0 -206 -166 -258q-19 -8 -37 -8q-9 0 -12 10l-19 48q-9 15 7 22q110 37 110 129v4q-38 0 -70 29q-30 27 -30 67z" />
<glyph unicode="&#x21b;" horiz-adv-x="739" d="M160 684h-113q-8 0 -18 10q-11 11 -11 19v98q0 7 11 18t18 11h111v190q0 11 12 23t23 12h110q11 0 23 -12t12 -23v-190h278q8 0 19 -11q10 -10 10 -18v-98q0 -9 -10 -19t-19 -10h-278v-389q0 -94 35 -129q33 -33 104 -33q56 0 133 47q28 16 43 -14l35 -68q8 -13 8 -24 q0 -19 -26 -33q-98 -59 -203 -59q-307 0 -307 313v389zM309 -215l4 -4q0 47 33 80t80 33q56 0 94 -41q37 -40 37 -121q0 -229 -184 -287q-21 -8 -41 -8q-14 0 -17 10l-20 53q-3 6 0 15t6 12q64 24 92 55q29 32 29 86v4q-47 0 -80 33t-33 80z" />
<glyph unicode="&#x2c6;" horiz-adv-x="1705" d="M801 1382l8 2q31 0 72 -41l239 -231q19 -19 19 -29q0 -15 -15 -24l-32 -21q-17 -10 -29 -10q-7 0 -43 25l-215 149l-215 -149q-36 -25 -43 -25q-12 0 -29 10l-33 21q-14 8 -14 22q0 11 18 29l240 231q41 41 72 41z" />
<glyph unicode="&#x2c7;" horiz-adv-x="1705" d="M813 1018l-8 -2q-31 0 -72 41l-239 231q-19 19 -19 29q0 16 14 24l33 21q17 10 29 10q9 0 43 -24l215 -150l215 150q34 24 43 24q12 0 29 -10l32 -21q15 -9 15 -22q0 -10 -19 -29l-239 -231q-41 -41 -72 -41z" />
<glyph unicode="&#x2d8;" horiz-adv-x="831" d="M414 1008v-2q-132 0 -205 73q-74 74 -74 195q0 20 21 20h92q20 0 20 -20q0 -62 41 -103t105 -41q63 0 104 41t41 103q0 20 21 20h92q20 0 20 -20q0 -119 -74 -193q-73 -73 -204 -73z" />
<glyph unicode="&#x2d9;" horiz-adv-x="471" d="M125 1139q0 44 31 80q28 32 77 32q50 0 78 -32q31 -36 31 -80t-31 -80q-29 -33 -78 -33q-48 0 -77 33q-31 36 -31 80z" />
<glyph unicode="&#x2da;" horiz-adv-x="552" d="M51 1237h-4q0 87 62 149t163 62q102 0 164 -62t62 -149q0 -88 -62 -150q-61 -61 -162 -61q-100 0 -161 61q-62 62 -62 150zM170 1237v-2q0 -45 29 -74q26 -26 73 -26q46 0 74 28q29 29 29 74q0 43 -29 72q-28 28 -74 28q-45 0 -73 -28q-29 -29 -29 -72z" />
<glyph unicode="&#x2db;" horiz-adv-x="626" d="M463 -324l-2 5q8 -36 8 -66q0 -20 -25 -29q-41 -14 -108 -14q-98 0 -156 49q-57 48 -57 133q0 130 127 248h145q-129 -123 -129 -227q0 -82 101 -82h20q9 0 25 4t18 4q27 3 33 -25z" />
<glyph unicode="&#x2dc;" horiz-adv-x="974" d="M238 1028h-62q-31 0 -31 27q0 254 193 254q76 0 135 -47l84 -68q55 -43 84 -43q74 0 74 131q0 27 30 27h62q31 0 31 -27q0 -254 -193 -254q-76 0 -135 47l-84 68q-55 43 -84 43q-74 0 -74 -131q0 -27 -30 -27z" />
<glyph unicode="&#x2dd;" horiz-adv-x="962" d="M469 1376l20 -18q23 -23 23 -43q0 -34 -39 -70l-221 -209q-13 -10 -31 -10h-65q-17 0 -17 14q0 9 13 25l206 283q33 45 66 45q25 0 45 -17zM811 1376l20 -18q23 -23 23 -43q0 -34 -39 -70l-221 -209q-13 -10 -31 -10h-65q-17 0 -17 14q0 9 13 25l206 283q33 45 66 45 q25 0 45 -17z" />
<glyph unicode="&#x3c0;" horiz-adv-x="1333" d="M811 684h-326v-649q0 -11 -12 -23t-22 -12h-111q-11 0 -23 12t-12 23v649h-217q-8 0 -18 10q-11 11 -11 19v98q0 7 11 18t18 11h1118q8 0 19 -11q10 -10 10 -18v-98q0 -9 -10 -19t-19 -10h-217v-389q0 -160 113 -160q36 0 82 19q31 10 41 -15l28 -67q7 -18 7 -25 q0 -21 -29 -37q-65 -30 -141 -30q-128 0 -203 75q-76 76 -76 240v389z" />
<glyph unicode="&#x1e80;" horiz-adv-x="2097" d="M2068 1192l-585 -1194h-58l-364 838l-14 45h-5q-7 -30 -14 -45l-364 -838h-58l-581 1190q-9 15 -9 24q0 13 17 13h143h17q6 0 10 -2q7 -4 10 -9q4 -8 6 -14l346 -711q17 -31 31 -71l27 -74l8 -31h8q26 90 55 160l326 754h57l326 -754l55 -160h8q36 119 64 179l346 710 q11 21 14 23q8 4 27 4h143q17 0 17 -12q0 -10 -9 -25zM729 1655l29 26q19 19 51 19q37 0 70 -45l206 -283q13 -16 13 -24q0 -15 -17 -15h-65q-18 0 -31 10l-244 203q-34 27 -34 62q0 25 22 47z" />
<glyph unicode="&#x1e81;" horiz-adv-x="1374" d="M215 811l184 -412l25 -104h8q8 52 25 98l190 447h80l191 -447l26 -98h8q8 66 25 104l182 412q9 21 17 25t24 4h127q16 0 16 -15q0 -6 -4 -18l-354 -807h-70l-190 449l-35 108h-6q-14 -57 -35 -108l-190 -449h-70l-354 807q-4 12 -4 18q0 15 16 15h127q17 0 25 -4 q7 -3 16 -25zM459 1348l28 26q19 19 52 19q36 0 69 -45l207 -283q12 -15 12 -25q0 -14 -16 -14h-66q-17 0 -30 10l-244 203q-35 27 -35 61q0 25 23 48z" />
<glyph unicode="&#x1e82;" horiz-adv-x="2097" d="M2068 1192l-585 -1194h-58l-364 838l-14 45h-5q-7 -30 -14 -45l-364 -838h-58l-581 1190q-9 15 -9 24q0 13 17 13h143h17q6 0 10 -2q7 -4 10 -9q4 -8 6 -14l346 -711q17 -31 31 -71l27 -74l8 -31h8q26 90 55 160l326 754h57l326 -754l55 -160h8q36 119 64 179l346 710 q11 21 14 23q8 4 27 4h143q17 0 17 -12q0 -10 -9 -25zM1333 1681l31 -26q22 -19 22 -47q0 -35 -34 -62l-244 -203q-13 -10 -31 -10h-65q-17 0 -17 15q0 8 13 24l206 283q33 45 70 45q27 0 49 -19z" />
<glyph unicode="&#x1e83;" horiz-adv-x="1374" d="M215 811l184 -412l25 -104h8q8 52 25 98l190 447h80l191 -447l26 -98h8q8 66 25 104l182 412q9 21 17 25t24 4h127q16 0 16 -15q0 -6 -4 -18l-354 -807h-70l-190 449l-35 108h-6q-14 -57 -35 -108l-190 -449h-70l-354 807q-4 12 -4 18q0 15 16 15h127q17 0 25 -4 q7 -3 16 -25zM932 1374l29 -26q22 -22 22 -48q0 -34 -35 -61l-243 -203q-13 -10 -31 -10h-66q-16 0 -16 14q0 10 12 25l207 283q33 45 70 45q29 0 51 -19z" />
<glyph unicode="&#x1e84;" horiz-adv-x="2097" d="M2068 1192l-585 -1194h-58l-364 838l-14 45h-5q-7 -30 -14 -45l-364 -838h-58l-581 1190q-9 15 -9 24q0 13 17 13h143h17q6 0 10 -2q7 -4 10 -9q4 -8 6 -14l346 -711q17 -31 31 -71l27 -74l8 -31h8q26 90 55 160l326 754h57l326 -754l55 -160h8q36 119 64 179l346 710 q11 21 14 23q8 4 27 4h143q17 0 17 -12q0 -10 -9 -25zM752 1442q0 46 30 80q28 32 78 32t78 -32q31 -36 31 -80t-31 -80q-29 -33 -78 -33t-78 33q-30 34 -30 80zM1116 1442q0 44 31 80q28 32 78 32t78 -32q30 -35 30 -80q0 -46 -30 -80q-29 -33 -78 -33t-78 33 q-31 36 -31 80z" />
<glyph unicode="&#x1e85;" horiz-adv-x="1374" d="M215 811l184 -412l25 -104h8q8 52 25 98l190 447h80l191 -447l26 -98h8q8 66 25 104l182 412q9 21 17 25t24 4h127q16 0 16 -15q0 -6 -4 -18l-354 -807h-70l-190 449l-35 108h-6q-14 -57 -35 -108l-190 -449h-70l-354 807q-4 12 -4 18q0 15 16 15h127q17 0 25 -4 q7 -3 16 -25zM395 1112q0 49 33 78q36 31 80 31t80 -31q33 -29 33 -78t-33 -78q-34 -30 -80 -30t-80 30q-33 29 -33 78zM760 1112q0 49 33 78q36 31 79 31q44 0 80 -31q33 -29 33 -78t-33 -78q-34 -30 -80 -30q-44 0 -79 30q-33 29 -33 78z" />
<glyph unicode="&#x1ef2;" horiz-adv-x="1282" d="M551 514l-526 686q-9 9 -9 17q0 12 13 12h155q30 0 49 -25l310 -403l88 -125h12q62 90 88 125l309 403q19 25 50 25h155q12 0 12 -12q0 -9 -8 -17l-522 -686v-489q0 -10 -6 -19q-4 -6 -16 -6h-132q-12 0 -16 6q-6 9 -6 19v489zM362 1659l29 27q18 18 51 18q37 0 70 -45 l207 -283q12 -15 12 -24q0 -15 -16 -15h-66q-16 0 -31 11l-243 202q-35 27 -35 62q0 25 22 47z" />
<glyph unicode="&#x1ef3;" horiz-adv-x="1003" d="M963 788l-517 -1273q-9 -25 -45 -25h-131q-16 0 -16 16q0 8 10 35l193 473l-414 779q-10 17 -10 30q0 17 18 17h133q34 0 49 -27l261 -489l43 -107h4l241 596q12 27 43 27h131q17 0 17 -17q0 -8 -10 -35zM319 1348l29 26q19 19 51 19q37 0 70 -45l207 -283q12 -15 12 -25 q0 -14 -16 -14h-66q-18 0 -31 10l-243 203q-35 27 -35 61q0 26 22 48z" />
<glyph unicode="&#x2000;" horiz-adv-x="901" />
<glyph unicode="&#x2001;" horiz-adv-x="1802" />
<glyph unicode="&#x2002;" horiz-adv-x="901" />
<glyph unicode="&#x2003;" horiz-adv-x="1802" />
<glyph unicode="&#x2004;" horiz-adv-x="600" />
<glyph unicode="&#x2005;" horiz-adv-x="450" />
<glyph unicode="&#x2006;" horiz-adv-x="300" />
<glyph unicode="&#x2007;" horiz-adv-x="300" />
<glyph unicode="&#x2008;" horiz-adv-x="225" />
<glyph unicode="&#x2009;" horiz-adv-x="360" />
<glyph unicode="&#x200a;" horiz-adv-x="100" />
<glyph unicode="&#x2010;" horiz-adv-x="696" d="M604 410h-512v139h512v-139z" />
<glyph unicode="&#x2011;" horiz-adv-x="696" d="M604 410h-512v139h512v-139z" />
<glyph unicode="&#x2012;" horiz-adv-x="696" d="M604 410h-512v139h512v-139z" />
<glyph unicode="&#x2013;" horiz-adv-x="1024" d="M922 410h-820v139h820v-139z" />
<glyph unicode="&#x2014;" horiz-adv-x="1536" d="M1434 410h-1332v139h1332v-139z" />
<glyph unicode="&#x2018;" horiz-adv-x="430" d="M334 903v-6q0 -47 -31 -78t-78 -31q-56 0 -94 41q-37 40 -37 111q0 200 154 295q18 12 39 12q14 0 24 -16l21 -33q8 -13 8 -24q0 -10 -8 -13q-24 -15 -51 -37q-20 -17 -37 -45q-19 -32 -19 -63v-4q47 0 78 -31t31 -78z" />
<glyph unicode="&#x2019;" horiz-adv-x="430" d="M96 1139v-9q0 44 31 80q29 33 78 33q58 0 94 -39q37 -40 37 -110q0 -198 -154 -293q-19 -13 -39 -13q-14 0 -24 17l-21 33q-8 13 -8 24q0 9 8 12q28 17 52 37q18 15 36 45q19 32 19 66v4q-49 0 -78 33q-31 36 -31 80z" />
<glyph unicode="&#x201a;" horiz-adv-x="430" d="M96 90v-8q0 44 31 80q29 33 78 33q58 0 94 -39q37 -40 37 -111q0 -196 -154 -291q-18 -12 -39 -12q-14 0 -24 16l-21 33q-8 13 -8 25q0 9 8 12q28 17 52 37q18 15 36 45q19 32 19 65v5q-48 0 -78 30q-31 36 -31 80z" />
<glyph unicode="&#x201c;" horiz-adv-x="753" d="M657 903v-6q0 -48 -30 -78q-31 -31 -78 -31q-56 0 -94 41q-37 40 -37 111q0 200 153 295q18 12 39 12q15 0 25 -16l20 -33q9 -15 9 -24q0 -10 -9 -13q-24 -15 -51 -37q-20 -17 -37 -45q-18 -30 -18 -63v-4q47 0 78 -31q30 -30 30 -78zM334 897v-6q0 -47 -31 -78t-78 -31 q-56 0 -94 41q-37 40 -37 111q0 200 154 295q18 12 39 12q14 0 24 -16l21 -33q8 -13 8 -25q0 -9 -8 -12q-24 -15 -51 -37q-20 -17 -37 -45q-19 -32 -19 -63v-4q47 0 78 -31t31 -78z" />
<glyph unicode="&#x201d;" horiz-adv-x="753" d="M96 1139v-9q0 44 31 80q29 33 78 33q58 0 94 -39q37 -40 37 -110q0 -198 -154 -293q-19 -13 -39 -13q-14 0 -24 17l-21 33q-8 13 -8 24q0 9 8 12q28 17 52 37q18 15 36 45q19 32 19 66v4q-49 0 -78 33q-31 36 -31 80zM420 1130v-8q0 44 31 80q29 33 77 33q59 0 95 -39 t36 -111q0 -197 -153 -292q-20 -13 -39 -13q-15 0 -25 17l-20 32q-8 13 -8 25q0 9 8 12q24 15 51 37q20 17 37 45q18 30 18 66v4q-48 0 -77 33q-31 36 -31 79z" />
<glyph unicode="&#x201e;" horiz-adv-x="753" d="M96 90v-8q0 44 31 80q29 33 78 33q58 0 94 -39q37 -40 37 -111q0 -196 -154 -291q-18 -12 -39 -12q-14 0 -24 16l-21 33q-8 13 -8 25q0 9 8 12q28 17 52 37q18 15 36 45q19 32 19 65v5q-48 0 -78 30q-31 36 -31 80zM420 82v-8q0 44 31 80q28 32 77 32q59 0 95 -39 t36 -110q0 -197 -153 -291q-18 -12 -39 -12q-15 0 -25 16l-20 33q-8 13 -8 24q0 10 8 13q24 15 51 37q20 17 37 45q18 30 18 65v4q-46 0 -77 31q-31 36 -31 80z" />
<glyph unicode="&#x2020;" d="M942 737l4 -24q0 -35 -12 -47q-13 -13 -45 -13h-96l-201 17l6 -191v-184l-6 -397h-113l-4 397v184l6 191l-200 -17h-99q-33 0 -45 15t-12 49v20q0 34 10 47t43 13h98l201 -17l-16 262v134q0 51 55 51h33q30 0 43 -13q12 -12 12 -38v-134l-16 -262l200 17h97q33 0 45 -15 t12 -45z" />
<glyph unicode="&#x2021;" d="M123 348l-2 14q0 36 12 48t47 12h96l201 -16l-6 122v54l6 123l-201 -17h-98q-34 0 -45 14q-12 15 -12 50v20q0 34 10 47q9 12 43 12h98l201 -16l-16 221v133q0 52 55 52h33q30 0 43 -13q12 -12 12 -39v-133l-16 -221l200 16h97q34 0 45 -14q12 -15 12 -45v-20 q0 -35 -12 -47q-13 -13 -45 -13h-97l-200 17l6 -123v-54l-6 -122l200 16h99q34 0 45 -14q12 -15 12 -50v-20q0 -34 -10 -47q-9 -12 -43 -12h-99l-200 16l16 -221v-131q0 -51 -55 -51h-33q-31 0 -43 12t-12 41v131l16 221l-201 -16h-96q-32 0 -45 16q-12 15 -12 47z" />
<glyph unicode="&#x2022;" horiz-adv-x="679" d="M176 512q0 70 47 117t117 47t117 -47t47 -117t-47 -117t-117 -47t-117 47t-47 117z" />
<glyph unicode="&#x2026;" horiz-adv-x="1175" d="M113 90q0 46 30 80q29 33 78 33t78 -33q31 -36 31 -80t-31 -80q-30 -30 -78 -30t-78 30q-30 34 -30 80zM477 90q0 44 31 80q29 33 78 33t78 -33q30 -34 30 -80q0 -45 -30 -80q-30 -30 -78 -30t-78 30q-31 36 -31 80zM842 90q0 46 30 80q29 33 78 33t78 -33q31 -36 31 -80 t-31 -80q-30 -30 -78 -30t-78 30q-30 34 -30 80z" />
<glyph unicode="&#x202f;" horiz-adv-x="360" />
<glyph unicode="&#x2030;" horiz-adv-x="2250" d="M82 952h-2q0 133 82 215t209 82t209 -82q84 -84 84 -215q0 -133 -82 -215t-209 -82t-209 82t-82 215zM219 952q0 -76 43 -125t111 -49q67 0 110 49t43 125t-43 125t-110 49q-68 0 -111 -49t-43 -125zM856 274l-4 -2q0 131 84 215t209 84q127 0 209 -82q84 -84 84 -215 q0 -133 -82 -215q-79 -79 -209 -79t-209 79q-82 82 -82 215zM991 272q0 -76 43 -125t111 -49q67 0 110 49t43 125t-43 125t-110 49q-68 0 -111 -49t-43 -125zM1579 272l-2 -2q0 133 82 215q84 84 209 84q127 0 209 -82q84 -84 84 -215q0 -133 -82 -215q-80 -80 -209 -80 t-209 80q-82 82 -82 215zM1716 270q0 -76 43 -125t111 -49q67 0 110 49t43 125t-43 125t-110 49q-68 0 -111 -49t-43 -125zM217 -2l977 1300l96 -73l-977 -1301z" />
<glyph unicode="&#x2039;" horiz-adv-x="548" d="M82 451q0 15 31 55l280 338q11 20 31 20q17 0 25 -8l22 -16q16 -10 16 -25q0 -10 -12 -31l-184 -333l184 -334q12 -21 12 -31q0 -15 -16 -25l-22 -16q-8 -8 -25 -8q-19 0 -31 18l-280 338q-31 39 -31 58z" />
<glyph unicode="&#x203a;" horiz-adv-x="548" d="M467 451q0 -19 -31 -58l-280 -338q-12 -18 -31 -18q-17 0 -25 8l-22 16q-17 10 -17 25q0 8 13 31l184 334l-184 333q-13 23 -13 31q0 15 17 25l22 16q8 8 25 8q20 0 31 -20l280 -338q31 -40 31 -55z" />
<glyph unicode="&#x2044;" horiz-adv-x="950" d="M-59 0l974 1303l97 -74l-977 -1301z" />
<glyph unicode="&#x205f;" horiz-adv-x="450" />
<glyph unicode="&#x20a1;" horiz-adv-x="1431" d="M311 -53l47 137q-260 175 -260 528q0 289 183 463q181 172 460 172q33 0 43 -2l58 158l106 -39l-49 -133q60 -11 123 -37l47 127l107 -39l-52 -141q102 -67 154 -166q53 -100 53 -199q0 -20 -31 -20h-118q-17 0 -23 6q-5 4 -8 29q-9 111 -84 186l-307 -844q173 3 276 80 t115 201q3 23 8 28q7 7 27 7h114q33 0 33 -17q0 -189 -159 -321q-155 -129 -426 -129q-36 0 -46 2l-57 -158l-106 39l47 133q-57 8 -123 35l-45 -125zM279 612v4q0 -230 141 -362l305 840q-195 -6 -322 -136q-124 -127 -124 -346zM516 188h2q66 -31 117 -41l330 902 q-46 25 -121 38z" />
<glyph unicode="&#x20a2;" horiz-adv-x="1427" d="M1290 819l-127 -10q-31 -3 -41 35q-27 101 -127 172q-97 69 -264 69q-203 0 -332 -129t-129 -350q0 -161 74 -276q73 -112 201 -166l2 2v551q0 10 12 22q13 13 23 13h84q20 0 32 -35l19 -53h8q65 108 188 108q101 0 160 -65q60 -66 60 -166v-21q0 -7 -13 -20t-20 -13 h-111q-7 0 -20 13t-13 22v8q0 43 -22 68t-62 25q-89 0 -141 -131v-357h8q315 0 391 217q9 21 17 29q6 6 29 6h116q33 0 27 -27q-29 -161 -180 -272q-146 -108 -396 -108q-281 0 -460 170q-181 172 -181 462q0 289 183 463q181 172 460 172q141 0 248 -39q114 -42 178 -100 q69 -62 105 -131q36 -67 45 -137q3 -9 -6 -15t-25 -6z" />
<glyph unicode="&#x20a3;" horiz-adv-x="1232" d="M41 266l2 121h164v815q0 11 8 19t18 8h914q8 0 18 -10q11 -11 11 -19v-98q0 -8 -11 -19q-10 -10 -18 -10h-758v-340h676q8 0 18 -10q11 -11 11 -18v-99q0 -7 -11 -18q-10 -10 -18 -10h-676v-189h389v-123h-389v-241q0 -11 -8 -19q-6 -6 -19 -6h-131q-12 0 -18 6 q-8 8 -8 19v241h-164z" />
<glyph unicode="&#x20a6;" horiz-adv-x="1699" d="M41 676v115h205v407q0 9 10 19t18 10h93l428 -439h477v408q0 8 10 18q11 11 18 11h119q8 0 19 -11q10 -10 10 -18v-408h205v-114h-205v-123h205v-115h-205v-407q0 -9 -10 -19t-19 -10h-90l-428 438h-479v-407q0 -9 -10 -19t-19 -10h-119q-8 0 -18 10t-10 19v407h-205v115 h205v123h-205zM426 676v-123h369l-121 123h-248zM907 676l121 -123h246v123h-367zM389 997h2q22 -125 29 -206h145l-6 6q-21 20 -61 73l-68 93l-29 41zM1303 242h2q-12 108 -21 196h-139l8 -8q24 -24 59 -74q48 -69 56 -82l22 -36z" />
<glyph unicode="&#x20a7;" horiz-adv-x="1368" d="M53 725v119h123v356q0 11 8 19t19 8h504q203 0 337 -101q138 -104 158 -278h107v-123h-107q-21 -180 -155 -281q-135 -102 -338 -102h-349v-317q0 -11 -8 -19q-6 -6 -18 -6h-131q-13 0 -19 6q-8 8 -8 19v700h-123zM700 494v-2q126 0 211 61q86 62 107 168h-662v-227h344z M700 1067l-344 -2v-225h662q-21 104 -107 166q-85 61 -211 61z" />
<glyph unicode="&#x20a8;" horiz-adv-x="1320" d="M113 1073l37 158h409h21h651l-37 -156h-223q67 -76 82 -184h178l-29 -123h-147q-21 -162 -156 -248q-136 -86 -340 -86h-31l4 -6q40 -18 93 -61l360 -328q16 -16 16 -27q0 -12 -18 -12h-197q-11 0 -28 14l-588 541v25h385q126 0 211 49t106 139h-759l28 123h729 q-42 182 -299 182h-458z" />
<glyph unicode="&#x20a9;" horiz-adv-x="2179" d="M61 520l-2 113h281l-61 123h-220v114h164l-155 320q-9 15 -9 24q0 13 17 13h143h17q6 0 10 -2q8 -4 10 -8q3 -6 6 -15l162 -332h481l156 357h57l154 -357h483l162 332q11 21 14 23q8 4 27 4h143q17 0 17 -12q0 -10 -9 -25l-155 -320h164v-114h-222l-59 -123h281v-115 h-336l-254 -520h-58l-225 520h-311l-225 -520h-58l-254 520h-336zM477 756l60 -123h264l53 123h-377zM1319 756l53 -123h264l60 123h-377zM1071 838l-90 -205h211l-88 205l-14 45h-5q-7 -30 -14 -45zM678 276v-2q26 128 55 197l19 45h-160l14 -27q17 -31 31 -79 q19 -68 25 -93l8 -41h8zM1505 274q35 153 64 215l12 27h-160l21 -45q7 -17 26 -78q6 -19 13 -49.5t8 -34.5l8 -35h8z" />
<glyph unicode="&#x20aa;" horiz-adv-x="1646" d="M1106 307l-182 -2v187q0 111 -43 151q-44 41 -168 41h-377v-684h-180v840h600q178 0 264 -80t86 -266v-187zM1309 838h180v-480q0 -358 -361 -358h-589v530h180v-376h373q123 0 170 47t47 157v480z" />
<glyph unicode="&#x20ac;" horiz-adv-x="1419" d="M82 676l31 117h157q52 211 222 331q171 121 399 121q221 0 369 -98q12 -9 12 -21q0 -18 -2 -24l-25 -103q-6 -27 -33 -6q-157 97 -323 97q-154 0 -273 -78q-114 -74 -161 -215h741l-31 -123h-737q-2 -14 -2 -62q0 -49 2 -61h707l-29 -123h-651q47 -141 161 -215 q119 -78 273 -78q156 0 289 109q31 25 51 2l55 -70q28 -28 0 -49q-154 -145 -395 -145q-236 0 -400 116q-168 119 -221 332h-186l29 123h137q-2 14 -2 61q0 48 2 62h-166z" />
<glyph unicode="&#x2122;" horiz-adv-x="1568" d="M55 1253q-14 0 -14 15v69q0 15 14 15h598q15 0 15 -15v-69q0 -15 -15 -15h-241v-520q0 -6 -6 -12t-11 -6h-82q-4 0 -10 6t-6 12v520h-242zM1368 1352h59q5 0 11 -6t6 -11v-604q0 -14 -17 -14h-81q-17 0 -17 14v422h-4q-18 -37 -49 -88l-186 -268l-189 268l-53 88h-4v-422 q0 -14 -15 -14h-84q-16 0 -16 14v604q0 5 6 11t10 6h62q13 0 20 -11l258 -366h7l258 366q7 11 18 11z" />
<glyph unicode="&#x2126;" horiz-adv-x="1531" d="M131 156h201l71 -4l3 6q-302 138 -302 487q0 266 191 436q189 168 471 168q283 0 473 -166q191 -167 191 -436q0 -352 -302 -487l2 -6q66 4 72 4h199q7 0 18 -11t11 -18v-98q0 -8 -11 -19q-10 -10 -18 -10h-533v221q174 30 277 142q102 111 102 284q0 202 -137 324 q-138 123 -344 123q-204 0 -344 -125q-141 -126 -141 -326q0 -173 104 -283q105 -111 279 -141v-221h-533q-8 0 -18 10q-11 11 -11 19v98q0 7 11 18t18 11z" />
<glyph unicode="&#x2202;" horiz-adv-x="1126" d="M1024 492l-4 -5q0 -228 -121 -370q-119 -140 -338 -140q-202 0 -332 115q-131 116 -131 326q0 205 127 323q126 117 301 117q156 0 275 -84l6 4q-59 164 -197 275t-397 176q-21 6 -12 39l20 82q6 20 23 20q20 0 59 -10q355 -90 541 -330q180 -232 180 -538zM840 414h2 q0 142 -82 215t-209 73q-121 0 -197 -79q-75 -78 -75 -205q0 -132 75 -207q78 -78 205 -78q138 0 209 92q72 93 72 189z" />
<glyph unicode="&#x2206;" horiz-adv-x="1339" d="M1300 0h-1261q-19 0 -19 14q0 1 1.5 4l4.5 9t5 12l602 1190h74l602 -1190q10 -23 10 -25q0 -14 -19 -14zM571 737l-290 -579l2 -2h774l2 2l-291 579l-92 226h-12q-47 -133 -93 -226z" />
<glyph unicode="&#x220f;" horiz-adv-x="1519" d="M1343 1204l5 -1179q0 -10 -9 -19q-6 -6 -18 -6h-131q-13 0 -19 6q-8 8 -8 19v1048h-807v-1048q0 -11 -8 -19q-6 -6 -18 -6h-131q-13 0 -19 6q-8 8 -8 19v1179q0 11 8 19t19 8h1118q10 0 18 -8t8 -19z" />
<glyph unicode="&#x2211;" horiz-adv-x="1374" d="M866 616l-383 -393q-12 -12 -37 -30q-30 -21 -36 -25l-15 -8v-4h865q7 0 18 -11q10 -10 10 -18v-98q0 -11 -8 -19q-10 -10 -18 -10h-1203v31l568 583l-568 584v31h1182q9 0 19 -10t10 -19v-98q0 -11 -8 -19q-10 -10 -19 -10h-840v-6q63 -37 111 -88z" />
<glyph unicode="&#x221a;" horiz-adv-x="1161" d="M633 102l317 1414h404v-123h-289l-356 -1596h-220l-210 748h-236v123h346l160 -566l31 -147h28q11 89 25 147z" />
<glyph unicode="&#x221e;" horiz-adv-x="1622" d="M422 178l2 -4q-124 0 -227 86t-103 248q0 166 103 252t227 86q112 0 186 -45q76 -46 187 -172l16 -19l16 19q111 123 189 172q74 47 182 47q124 0 227 -86t103 -248q0 -166 -103 -252t-227 -86q-102 0 -190 55q-80 50 -185 168l-14 17l-14 -17q-106 -121 -185 -172 q-76 -49 -190 -49zM1200 725v-6q-74 0 -129 -37q-61 -41 -145 -141l-27 -31l29 -37q140 -180 274 -180q80 0 135 55q56 56 56 162q0 105 -58 160t-135 55zM424 291l2 -2q76 0 129 41q57 44 145 145l29 33l-29 31q-98 104 -153 143q-52 37 -123 37q-78 0 -133 -55t-55 -162 q0 -106 55 -158q56 -53 133 -53z" />
<glyph unicode="&#x222b;" horiz-adv-x="540" d="M180 -150l-2 1383q0 283 260 283q14 0 64 -5q30 -3 45 -6l14 -4v-90q0 -23 -22 -20l-27 2q-18 2 -53 2q-140 0 -140 -160v-1382q0 -283 -258 -283q-25 0 -61 4q-30 3 -45 6l-14 4v90q0 21 20 21q13 0 31 -2q16 -2 49 -2q139 0 139 159z" />
<glyph unicode="&#x2248;" horiz-adv-x="1024" d="M332 743h-6q-69 0 -121 -38q-59 -43 -86 -82l-62 106q43 55 117 105q73 49 154 49q87 0 188 -72t172 -72q49 0 103 31q50 28 79 61l29 31l62 -106q-39 -51 -115 -105q-71 -51 -156 -51t-186 72q-100 71 -172 71zM326 426h-4q-68 0 -121 -39q-59 -43 -86 -82l-62 101 q42 53 117 104q73 49 154 49q89 0 182 -72q92 -71 166 -71q48 0 104 30q52 28 86 62l31 31l61 -101q-39 -50 -114 -104q-71 -51 -156 -51q-86 0 -186 71q-101 72 -172 72z" />
<glyph unicode="&#x2260;" horiz-adv-x="1024" d="M266 74l105 286h-269v140h320l59 164h-379v139h428l123 334l115 -43l-106 -291h260v-139h-312l-59 -164h371v-140h-422l-119 -329z" />
<glyph unicode="&#x2264;" horiz-adv-x="1024" d="M883 0h-742v123h742v-123zM883 340v-115h-52l-690 434v50l690 438h52v-113l-547 -346v-6z" />
<glyph unicode="&#x2265;" horiz-adv-x="1024" d="M883 0h-742v123h742v-123zM141 225v115l547 342v6l-547 346v113h52l690 -438v-50l-690 -434h-52z" />
<glyph unicode="&#x25ca;" horiz-adv-x="1040" d="M942 573l-342 -653h-158l-342 653l344 656h154zM256 573l262 -499h6l260 499l-262 500h-2z" />
<glyph unicode="&#x25fc;" horiz-adv-x="839" d="M0 840h840v-840h-840v840z" />
<glyph unicode="&#xfb01;" horiz-adv-x="1032" d="M909 805l2 -772q0 -11 -12 -23q-10 -10 -22 -10h-111q-13 0 -23 10q-12 12 -12 23v649h-369v-649q0 -11 -12 -23q-10 -10 -22 -10h-111q-12 0 -22 10q-13 13 -13 23v649h-110q-9 0 -19 10t-10 19v98q0 8 10 18q11 11 19 11h110v196q0 166 99 252q100 86 245 86 q187 0 334 -129q19 -16 19 -31q0 -14 -13 -30l-49 -60q-21 -24 -49 0q-115 95 -231 95q-78 0 -127 -43q-50 -44 -50 -138v-196h514q10 0 23 -13q12 -12 12 -22z" />
<glyph unicode="&#xfb02;" horiz-adv-x="1073" d="M360 1036l5 -200h237q8 0 19 -11q10 -10 10 -18v-98q0 -9 -10 -19t-19 -10h-237v-649q0 -10 -13 -23q-10 -10 -22 -10h-111q-12 0 -22 10q-13 13 -13 23v649h-110q-9 0 -19 10t-10 19v98q0 8 10 18q11 11 19 11h110v196q0 166 99 252q100 86 245 86q213 0 387 -82 q35 -15 35 -37v-1216q0 -11 -12 -23t-23 -12h-110q-11 0 -23 12t-12 23v1141q-112 41 -233 41q-78 0 -127 -43q-53 -46 -50 -138z" />
</font>
</defs>
</svg>
